Заходят многие - остаются лучшие!
Здравствуйте Гость ( Вход | Регистрация ) Выслать повторно письмо для активации
Вход
Ваше имя Пароль Забыли пароль?
Запомнить Вас?
Войти скрытым?



 Правила раздела Новые сообщения раздела  


 

 Три истории любви / The Story of Three Loves (1953), Мойра Ширер, Джеймс Мейсон, Лесли Карон, Фарли Грейнджер, Кирк Дуглас
surzhoks
  №1 Отправлено: 11.03.2017 - 09:23


Старожил

Группа: Аксакалы
Регистрация: 17.03.2008
Сообщений: 927
Обитает:
Последний раз был:
24.04.2017 - 13:03




Три истории любви / The Story of Three Loves


Страна: США
Студия: Metro-Goldwyn-Mayer (MGM)
Жанр: фэнтези, драма, мелодрама, музыкальный
Год выпуска: 1953
Продолжительность: 02:01:47
Режиссеры: Винсенте Миннелли / Vincente Minnelli, Готфрид Рейнхарт / Gottfried Reinhardt
Композитор: Миклош Рожа / Miklós Rózsa
В ролях:
История первая “Ревнивый любовник”
Мойра Ширер / Moira Shearer ... Paula Woodward (segment 'The Jealous Lover')
Джеймс Мейсон / James Mason ... Charles Coutray (segment 'The Jealous Lover')
Агнес Мурхед / Agnes Moorehead ... Aunt Lydia (segment 'The Jealous Lover')
История вторая “ Мадемуазель”
Фарли Грейнджер / Farley Granger ... Thomas Clayton Campbell Jr. (segment 'Mademoiselle')
Этель Бэрримор / Ethel Barrymore ... Mrs. Hazel Pennicott (segment 'Mademoiselle')
Лесли Карон / Leslie Caron ... Mademoiselle (segment 'Mademoiselle')
Жа Жа Габор / Zsa Zsa Gabor ... Flirt at Bar (segment 'Mademoiselle')
Рики Нельсон / Ricky Nelson ... Tommy: aged 11 (segment 'Mademoiselle')
История третья “Равновесие”
Кирк Дуглас / Kirk Douglas ... Pierre Narval (segment 'Equilibrium')
Пьер Анджели / Pier Angeli ... Nina Burkhardt (segment 'Equilibrium')
Ричард Андерсон / Richard Anderson ... Marcel (segment 'Equilibrium')

Описание: Три истории — три любовных романа, связанные тем, что все они — воспоминания пассажиров одного парохода.
В первой Паула — талантливая балерина, не может существовать без танцев, но у нее находят порок сердца, что не совместимо с балетом.
Во второй части юный Томми презирает свою французскую гувернантку и мечтает поскорее стать взрослым, чтобы делать все, что захочется. Неожиданно, как по взмаху волшебной палочки, Томми вырастает в красивого юношу. Но лишь на один вечер.
Третья история о Пьере Нарвале — воздушном гимнасте на трапеции, который бросил опасное занятие после того, как его партнер умер во время трюка. Он спасает молодую женщину, которая собирается прыгнуть в Сену, и убеждает ее стать его новым партнером. Нина соглашается, поскольку не хочет жить — ее муж был убит нацистами во время войны, и она винит себя в его гибели. Пьер и Нина влюбляются друг в друга, но ей предстоит сделать все тот же опасный трюк, в результате которого погибла предыдущая партнерша Пьера.

Оскар, 1954 год
Номинация в категории (1): Лучшая работа художника (цветные фильмы)

Раздача посвящена 100-летию Кирка Дугласа (9 декабря 1916) и Жа Жа Габор (6 февраля 1917 - 18 декабря 2016)

Доп. информация:
Огромное спасибо всем причастным к релизу:
рип - Магда,
перевод и озвучивание фильма - Алексей Яковлев,
работа со звуком и реавторинг исходного DVD- rjhlb777,
финансовая поддержка перевода и озвучивания фильма:
Магда, Lafajet, jasenka, елена 22, yanaelisa, Ugo927, surzhoks, sindzi, voostorg, spartakeynoir, mangust1, sapog1960, leoder, borisol55, mumzik69, Wrobel, Patsy+

Архивы созданы RAR-архиватором с добавлением 3% на восстановление и снабжены sfv-проверочником.
Просьба к первому скачавшему отписаться о сохранности архивов на источнике раздачи.

Раздача рассчитана на 2 месяца. На просмотр линка и скачивание 5 дней!
В случае если вы встали в очередь, а затем отказываетесь от скачивания без объяснения причин, возможен отказ в последующих моих раздачах.




Полное имя :The Story of Three Loves.1953.DVDRip.avi
Формат : AVI
Формат/Информация : Audio Video Interleave
Размер файла : 1,62 Гбайт
Продолжительность : 2 ч. 1 м.
Общий поток : 1910 Кбит/сек
Программа кодирования : VirtualDubMod 1.5.4.1 (build 2178/release)
Библиотека кодирования : VirtualDubMod build 2178/release

Видео
Идентификатор : 0
Формат : MPEG-4 Visual
Профиль формата : Advanced Simple@L5
Параметр BVOP формата : 2
Параметр QPel формата : Нет
Параметр GMC формата : Без точки перехода
Параметр матрицы формата : Default (H.263)
Идентификатор кодека : DX50
Идентификатор кодека/Подсказка : DivX 5
Продолжительность : 2 ч. 1 м.
Битрейт : 1512 Кбит/сек
Ширина : 640 пикселей
Высота : 480 пикселей
Соотношение сторон : 4:3
Частота кадров : 23,976 кадра/сек
Цветовое пространство : YUV
Субдискретизация насыщенности : 4:2:0
Битовая глубина : 8 бит
Тип развёртки : Прогрессивная
Метод сжатия : С потерями
Бит/(Пиксели*Кадры) : 0.205
Размер потока : 1,29 Гбайт (79%)
Библиотека кодирования : XviD 73

Аудио #1
Идентификатор : 1
Формат : AC-3
Формат/Информация : Audio Coding 3
Расширение режима : CM (complete main)
Параметр Endianness формата : Big
Идентификатор кодека : 2000
Продолжительность : 2 ч. 1 м.
Вид битрейта : Постоянный
Битрейт : 192 Кбит/сек
Каналы : 2 канала
Расположение каналов : Front: L R
Частота : 48,0 КГц
Битовая глубина : 16 бит
Метод сжатия : С потерями
Размер потока : 167 Мбайт (10%)
Выравнивание : Разделение по промежуткам
Продолжительность промежутка : 42 мс. (1,00 видеокадр)
Время предзагрузки промежутка : 500 мс.

Аудио #2
Идентификатор : 2
Формат : AC-3
Формат/Информация : Audio Coding 3
Расширение режима : CM (complete main)
Параметр Endianness формата : Big
Идентификатор кодека : 2000
Продолжительность : 2 ч. 1 м.
Вид битрейта : Постоянный
Битрейт : 192 Кбит/сек
Каналы : 2 канала
Расположение каналов : Front: L R
Частота : 48,0 КГц
Битовая глубина : 16 бит
Метод сжатия : С потерями
Размер потока : 167 Мбайт (10%)
Выравнивание : Разделение по промежуткам
Продолжительность промежутка : 42 мс. (1,00 видеокадр)
Время предзагрузки промежутка : 500 мс.




--------------------
Искусство откладывать деньги сводится к умению сказать “нет” потребительскому обществу.

Скрыть подпись


aterius
№2 Отправлено: 11.03.2017 - 09:46


Новичок

Группа: Потребители
Регистрация: 2.07.2007
Сообщений: 54
Обитает:
Последний раз был:
26.04.2017 - 19:25




Все Собралось.
Спасибо за фильм!


--------------------
Dum Spiro Spero

Скрыть подпись
Top
surzhoks
№3 Отправлено: 11.03.2017 - 11:58


Старожил

Группа: Аксакалы
Регистрация: 17.03.2008
Сообщений: 927
Обитает:
Последний раз был:
24.04.2017 - 13:03




aterius, спасибо за сообщение.


--------------------
Искусство откладывать деньги сводится к умению сказать “нет” потребительскому обществу.

Скрыть подпись
Top
1 человек просматривает эту тему (1 гость)
« Предыдущая тема | Зарубежные фильмы | Следующая тема »


 



[Script Execution time: 0,0491]   [23 queries used]   [GZIP enabled]