Заходят многие - остаются лучшие!
Здравствуйте Гость ( Вход | Регистрация ) Выслать повторно письмо для активации
Вход
Ваше имя Пароль Забыли пароль?
Запомнить Вас?
Войти скрытым?



 Правила раздела Новые сообщения раздела  


 

 Афина / Athena (1954), Джейн Пауэлл, Дебби Рейнольдс / мюзикл, мелодрама / студия MGM
surzhoks
  №1 Отправлено: 11.03.2017 - 12:38


Старожил

Группа: Аксакалы
Регистрация: 17.03.2008
Сообщений: 967
Обитает:
Последний раз был:
9.10.2017 - 22:07




Афина / Athena


Страна: США
Студия: Metro-Goldwyn-Mayer (MGM)
Жанр: мюзикл, мелодрама, комедия
Год выпуска: 1954
Продолжительность: 01:35:57
Режиссер: Ричард Торп / Richard Thorpe
Композитор: Джордж Столл / George Stoll
В ролях:
Джейн Пауэлл / Jane Powell ... Athena Mulvain
Дебби Рейнольдс / Debbie Reynolds ... Minerva Mulvain
Вирджиния Гибсон / Virginia Gibson ... Niobe Mulvain
Нэнси Килгас / Nancy Kilgas ... Aphrodite Mulvain
Долорес Старр / Dolores Starr ... Calliope Mulvain
Джейн Фишер / Jane Fischer ... Medea Mulvain
Сесиль Роджерс / Cecile Rogers ... Ceres Mulvain
Эдмунд Пурдом / Edmund Purdom ... Adam Calhorn Shaw
Вик Дамоне / Vic Damone ... Johnny Nyle
Луи Кэлхерн / Louis Calhern ... Grandpa Ulysses Mulvain
Линда Кристиан / Linda Christian ... Beth Hallson
Рэй Коллинз / Ray Collins ... Mr. Tremaine
Карл Бентон Рейд / Carl Benton Reid ... Mr. Griswalde
Ховард Уенделл / Howard Wendell ... Mr. Grenville

Описание: Афина Малвейн вместе с шестью сёстрами живут под опекой бабушки и дедушки, пропагандирующих здоровый образ жизни. Малвейны так же являются поклонниками нумерологии и астрологии. Однажды Афина знакомится с начинающим политиком Адамом Шоу. Знакомство быстро перерастает в роман. Когда речь заходит о свадьбе, перед молодыми возникает проблема в лице консервативного общества, в котором вращается Адам. Примет ли это общество Афину?


Сассафрас - род листопадных деревьев, кустарников из семейства Лавровые: https://ru.wikipedia.org/wiki/Сассафрас
Мульчи́рование - поверхностное покрытие почвы му́льчей для её защиты и улучшения свойств. Роль мульчи могут выполнять самые разнообразные материалы. Мульчирование является одним из наиболее эффективных способов поддержания здоровья растений. - https://ru.wikipedia.org/wiki/Мульчирование
Окассен и Николетта - французский рыцарский роман первой половины XIII века в жанре песни-сказки: https://ru.wikipedia.org/wiki/Окассен_и_Николетта
Геро и Леандр - герои античного мифа: https://ru.wikipedia.org/wiki/Геро_и_Леандр
Юты, юте, юта, нучи (самоназвания) - индейский народ в США: https://ru.wikipedia.org/wiki/Юты_(народ)
Меласса (чёрная патока) - кормовая патока, побочный продукт сахарного производства; сиропообразная жидкость тёмно-бурого цвета со специфическим запахом. - https://ru.wikipedia.org/wiki/Меласса


Доп. информация:
Огромное спасибо всем причастным к релизу:
рип - Магда,
перевод и озвучивание фильма - Владимир Воронцов (-Доцент-),
работа со звуком и реавторинг исходного DVD - AlekceyR76,
перевод фрагмента из оперы "Дочь полка" - Lisok ,
финансовая поддержка перевода и озвучивания фильма:
Магда, Lafajet, jasenka, елена 22, yanaelisa, leoder, surzhoks, voostorg, mangust1, sin58, cementit, HippopotamusIV, sapog1960, keg38, Patsy+, Видео

Архивы созданы RAR-архиватором с добавлением 3% на восстановление и снабжены sfv-проверочником. Раздача содержит русские субтитры на песни.
Просьба к первому скачавшему отписаться о сохранности архивов на источнике раздачи.

Раздача рассчитана на 2 месяца. На просмотр линка и скачивание 5 дней!
В случае если вы встали в очередь, а затем отказываетесь от скачивания без объяснения причин, возможен отказ в последующих моих раздачах.




Полное имя :Athena.1954.DVDRip.avi
Формат : AVI
Формат/Информация : Audio Video Interleave
Размер файла : 1,59 Гбайт
Продолжительность : 1 ч. 35 м.
Общий поток : 2368 Кбит/сек
Программа кодирования : VirtualDubMod 1.5.4.1 (build 2178/release)
Библиотека кодирования : VirtualDubMod build 2178/release

Видео
Идентификатор : 0
Формат : MPEG-4 Visual
Профиль формата : Advanced Simple@L5
Параметр BVOP формата : 2
Параметр QPel формата : Нет
Параметр GMC формата : Без точки перехода
Параметр матрицы формата : Default (H.263)
Идентификатор кодека : DX50
Идентификатор кодека/Подсказка : DivX 5
Продолжительность : 1 ч. 35 м.
Битрейт : 1970 Кбит/сек
Ширина : 704 пикселя
Высота : 384 пикселя
Соотношение сторон : 1,85:1
Частота кадров : 23,976 кадра/сек
Цветовое пространство : YUV
Субдискретизация насыщенности : 4:2:0
Битовая глубина : 8 бит
Тип развёртки : Прогрессивная
Метод сжатия : С потерями
Бит/(Пиксели*Кадры) : 0.304
Размер потока : 1,32 Гбайт (83%)
Библиотека кодирования : XviD 73

Аудио #1
Идентификатор : 1
Формат : AC-3
Формат/Информация : Audio Coding 3
Расширение режима : CM (complete main)
Параметр Endianness формата : Big
Идентификатор кодека : 2000
Продолжительность : 1 ч. 35 м.
Вид битрейта : Постоянный
Битрейт : 192 Кбит/сек
Каналы : 2 канала
Расположение каналов : Front: L R
Частота : 48,0 КГц
Битовая глубина : 16 бит
Метод сжатия : С потерями
Размер потока : 132 Мбайт (8%)
Выравнивание : Разделение по промежуткам
Продолжительность промежутка : 42 мс. (1,00 видеокадр)
Время предзагрузки промежутка : 500 мс.

Аудио #2
Идентификатор : 2
Формат : AC-3
Формат/Информация : Audio Coding 3
Расширение режима : CM (complete main)
Параметр Endianness формата : Big
Идентификатор кодека : 2000
Продолжительность : 1 ч. 35 м.
Вид битрейта : Постоянный
Битрейт : 192 Кбит/сек
Каналы : 2 канала
Расположение каналов : Front: L R
Частота : 48,0 КГц
Битовая глубина : 16 бит
Метод сжатия : С потерями
Размер потока : 132 Мбайт (8%)
Выравнивание : Разделение по промежуткам
Продолжительность промежутка : 42 мс. (1,00 видеокадр)
Время предзагрузки промежутка : 500 мс.




--------------------
Искусство откладывать деньги сводится к умению сказать “нет” потребительскому обществу.

Скрыть подпись


vjub58
№2 Отправлено: 11.03.2017 - 14:32


Практикующий эсквайр

Группа: Аксакалы
Регистрация: 6.12.2005
Сообщений: 4588
Обитает:
Последний раз был:
вчера в 23:41




Спасибо, все ОК. pozdrav_buket.gif
Top
tomclon
  №3 Отправлено: 11.03.2017 - 14:34


Новичок

Группа: Потребители
Регистрация: 13.03.2009
Сообщений: 57
Обитает:
Последний раз был:
10.07.2017 - 16:13




Спасибо за раздачу, архивы в порядке yes.gif
Top
1 человек просматривает эту тему (1 гость)
« Предыдущая тема | Зарубежные фильмы | Следующая тема »


 



[Script Execution time: 0,0345]   [23 queries used]   [GZIP enabled]