Заходят многие - остаются лучшие!
Здравствуйте Гость ( Вход | Регистрация ) Выслать повторно письмо для активации
Вход
Ваше имя Пароль Забыли пароль?
Запомнить Вас?
Войти скрытым?



 Правила раздела Новые сообщения раздела  


 

 Раба греха / La schiava del peccato (1954), Сильвана Пампанини, Марчелло Мастроянни
surzhoks
  №1 Отправлено: 11.03.2017 - 19:54


Старожил

Группа: Аксакалы
Регистрация: 17.03.2008
Сообщений: 969
Обитает:
Последний раз был:
16.11.2017 - 20:38




Раба греха / La schiava del peccato


Страна: Италия
Студия: Documento
Жанр: драма
Год выпуска: 1954
Продолжительность: 01:38:58
Режиссер: Раффаэлло Матараццо / Raffaello Matarazzo
Композитор: Ренцо Росселлини / Renzo Rossellini

В ролях:
Сильвана Пампанини / Silvana Pampanini ... Mara Gualtieri
Марчелло Мастроянни / Marcello Mastroianni ... Giulio Franchi
Франко Фабрици / Franco Fabrizi ... Carlo
Камилло Пилотто / Camillo Pilotto ... Il commissario Agnelli
Олинто Кристина / Olinto Cristina ... Il direttore dell'albergo
Дина Пербеллини / Dina Perbellini ... La signora Cesira
Пауль Мюллер / Paul Muller ... Il viaggiatore polacco
Ирен Дженна / Irene Genna ... Dina
Ренато Викарио / Renato Vicario ... Il marito di Dina
Франка Доминичи / Franca Dominici ... Suor Cristina
Лилиана Джераче / Liliana Gerace
Лаура Горэ / Laura Gore

Описание: Мара Гуалтьери, девушка легкого поведения, во время железнодорожной аварии спасает маленькую польскую девочку, родители которой погибли. Девочка напомнила Маре её умершую дочь. Мара хочет удочерить девочку, но она не может этого сделать, пока не устроится на работу. С трудом она находит работу на заводе. Случайно Мара встречает своего бывшего любовника, который был отцом её дочери. Он женат, но в семье нет детей. Он думает, что девочка - его дочь...
Фильм поставлен по рассказу Оресте Бьянколи.

Доп. информация:
Огромное спасибо всем причастным к релизу:
рип - Магда,
перевод фильма - Сибирский ,
озвучивание фильма (по русским субтитрам) - fiendover (Виктор Рутилов),
работа со звуком и реавторинг DVD - Нордер,
финансовая поддержка перевода и озвучивания фильма:
Магда, Lafajet, jasenka, елена 22, yanaelisa, borisol55, mangust1, GalaUkr, Ugo927, sindzi, voostorg, mumzik69

Архивы созданы RAR-архиватором с добавлением 3% на восстановление и снабжены sfv-проверочником.
Просьба к первому скачавшему отписаться о сохранности архивов на источнике раздачи.

Раздача рассчитана на 2 месяца. На просмотр линка и скачивание 5 дней!
В случае если вы встали в очередь, а затем отказываетесь от скачивания без объяснения причин, возможен отказ в последующих моих раздачах.




Полное имя :La schiava del peccato.1954.avi
Формат : AVI
Формат/Информация : Audio Video Interleave
Размер файла : 1,59 Гбайт
Продолжительность : 1 ч. 38 м.
Общий поток : 2302 Кбит/сек
Программа кодирования : VirtualDubMod 1.5.4.1 (build 2178/release)
Библиотека кодирования : VirtualDubMod build 2178/release

Видео
Идентификатор : 0
Формат : MPEG-4 Visual
Профиль формата : Advanced Simple@L5
Параметр BVOP формата : 2
Параметр QPel формата : Нет
Параметр GMC формата : Без точки перехода
Параметр матрицы формата : Default (H.263)
Идентификатор кодека : DX50
Идентификатор кодека/Подсказка : DivX 5
Продолжительность : 1 ч. 38 м.
Битрейт : 1904 Кбит/сек
Ширина : 704 пикселя
Высота : 528 пикселей
Соотношение сторон : 4:3
Частота кадров : 25,000 кадров/сек
Цветовое пространство : YUV
Субдискретизация насыщенности : 4:2:0
Битовая глубина : 8 бит
Тип развёртки : Прогрессивная
Метод сжатия : С потерями
Бит/(Пиксели*Кадры) : 0.205
Размер потока : 1,32 Гбайт (83%)
Библиотека кодирования : XviD 73

Аудио #1
Идентификатор : 1
Формат : AC-3
Формат/Информация : Audio Coding 3
Расширение режима : CM (complete main)
Параметр Endianness формата : Big
Идентификатор кодека : 2000
Продолжительность : 1 ч. 38 м.
Вид битрейта : Постоянный
Битрейт : 192 Кбит/сек
Каналы : 2 канала
Расположение каналов : Front: L R
Частота : 48,0 КГц
Битовая глубина : 16 бит
Метод сжатия : С потерями
Размер потока : 136 Мбайт (8%)
Выравнивание : Разделение по промежуткам
Продолжительность промежутка : 40 мс. (1,00 видеокадр)
Время предзагрузки промежутка : 500 мс.

Аудио #2
Идентификатор : 2
Формат : AC-3
Формат/Информация : Audio Coding 3
Расширение режима : CM (complete main)
Параметр Endianness формата : Big
Идентификатор кодека : 2000
Продолжительность : 1 ч. 38 м.
Вид битрейта : Постоянный
Битрейт : 192 Кбит/сек
Каналы : 2 канала
Расположение каналов : Front: L R
Частота : 48,0 КГц
Битовая глубина : 16 бит
Метод сжатия : С потерями
Размер потока : 136 Мбайт (8%)
Выравнивание : Разделение по промежуткам
Продолжительность промежутка : 40 мс. (1,00 видеокадр)
Время предзагрузки промежутка : 500 мс.




--------------------
Искусство откладывать деньги сводится к умению сказать “нет” потребительскому обществу.

Скрыть подпись


kyo
№2 Отправлено: 12.03.2017 - 05:38


Живёт здесь

Группа: Потребители
Регистрация: 21.07.2007
Сообщений: 1812
Обитает:
Последний раз был:
вчера в 18:28




Архивы в порядке, спасибо !
Top
1 человек просматривает эту тему (1 гость)
« Предыдущая тема | Зарубежные фильмы | Следующая тема »


 



[Script Execution time: 0,0363]   [23 queries used]   [GZIP enabled]