Заходят многие - остаются лучшие!
Здравствуйте Гость ( Вход | Регистрация ) Выслать повторно письмо для активации
Вход
Ваше имя Пароль Забыли пароль?
Запомнить Вас?
Войти скрытым?



 Правила раздела Новые сообщения раздела  


 

 Каста Дива / Casta diva (1954), Драма,мелодрама,музыкальный;Реж-К.Галлоне;Роли:А.Луальди,Н.Грей,М.Роне
SanSan48
  №1 Отправлено: 25.10.2018 - 18:27


"Спартак" - ЧЕМПИОН!!!

Группа: Пользователи
Регистрация: 28.12.2009
Сообщений: 1964
Обитает:
Последний раз был:
cегодня в 19:07




Каста Дива / Casta diva (1954)



Предыдущая раздача:
26.07.2008 (DVDrip)

Жанр: Драма, мелодрама, биография, музыкальный
Выпущено: Италия, Франция, Documento Film,Franco London Films,Le Louvre Film
Год выпуска: 1956
Премьера (мир): 1954 (Италия), 2 октября 1956 (Франция), 1956 (США)
Сценаристы: Кармине Галлоне / Carmine Gallone, Вальтер Райш / Walter Reisch, Адженоре Инкроччи / Agenore Incrocci, Фурио Скарпелли / Furio Scarpelli, Луиджи Филиппо д’Амико / Luigi Filippo D'Amico, Лео Жоаннон / Léo Joannon
Оператор: Марко Скарпелли / Marco Scarpelli
Композитор: музыкальное сопровождение - арии из опер Беллини
Художники: Марио Кьяри / Mario Chiari, Мария Де Маттеи / Maria De Matteis
Монтажер: Никколо Лаззари / Niccolò Lazzari

Режиссёр: Кармине Галлоне / Carmine Gallone

В ролях:
Антонелла Луальди / Antonella Lualdi ... Maddalena Fumaroli
Надя Грей / Nadia Gray ... Giuditta Pasta
Морис Роне / Maurice Ronet ... Vincenzo Bellini
Фаусто Тоцци / Fausto Tozzi ... Gaetano Donizetti
Жак Кастело / Jacques Castelot ... Ernesto Tosi
Марина Берти / Marina Berti ... Beatrice Turina
Ренцо Риччи / Renzo Ricci ... Giudice Fumaroli
Жан Ришар / Jean Richard ... Fiorillo
Данило Белардинелли / Danilo Belardinelli ... Nicolò Paganini
Паула Борбони / Paola Borboni ... Signora Monti
Манлио Бузони / Manlio Busoni ... Domenico Barbaja
Никла Ди Бруно / Nicla Di Bruno ... La ballerina
Лауро Гаццоло / Lauro Gazzolo ... Signor Monti
Данте Маджио / Dante Maggio ... Il pazzariello
Камилло Пилотто / Camillo Pilotto ... Rettore Conservatorio

Описание: В фильме рассказывается история создания трагедии Винченцо Беллини "Норма".
Только что получивший аттестат консерватории Неаполя, Винченцо Белини встречает Маддалену и влюбляется в девушку. Он пишет романс "Каста Дива", в которой рисует музыкальный портрет своей возлюбленной. Беллини - самый многообещающий ученик Консерватории, но он хочет только вернуться в Сицилию и жить с Маддаленой. Он отвергает даже предложение известной певицы Джудитты Пасты, которая зовет его с собой в Милан...

Дополнительная информация: Релиз:

Исходник найден в сети.

Автор рипа: pmv

Большое спасибо за:
- аудиодорожку с многоголосой озвучкой - Rusalochka (Феникс)
- синхронизацию звуковой аудиодорожки - pmv

* Этот фильм является римейком одноименного фильма того же режиссёра, который был создан в 1935 году. Он был "трофейным" фильмом и демострировался в советском прокате под названием «Девушка из Неаполя» с 28 февраля 1949 года в дубляже, выполненном на киностудии им. М.Горького.

* В исходнике русская озвучка наложена на английский дубляж. Второй дорожкой в рипе представлена оригинальная на итальянском языке.

* В 1831 году, в миланском театре «Ла Скала» состоялась премьера трагической оперы Винченцо Беллини «Норма» с ее знаменитой каватиной главной героини — «Каста дива» — одной из бесспорных вершин вокального искусства. Репетиции начались всего за 20 дней до премьеры, и спектакль был еще сырой.
Исполнительнице партии «Нормы» Джудитте Паста в день премьеры нездоровилось. Это не могло не сказаться на выступлении. По свидетельству музыкальных критиков, присутствовавших на спектакле, Паста пела на четверть тона ниже, а вслед за ней фальшивили и другие исполнители. Оперу освистали. Только Доницетти по достоинству оценил новое произведение коллеги.
На следующий день после спектакля он написал одному из своих друзей: ««Норма» вчера была не понята миланцами и несправедливо осуждена. Я же был бы счастлив, написав такую оперу, и с удовольствием поставил бы свое имя под этой музыкой». И действительно, начиная уже со следующего спектакля, «Норма» Беллини стала пользоваться неизменным успехом…

* «Casta Diva», Каватина Нормы — ария из оперы Винченцо Беллини «Норма» (1831), Акт I, Сцена 1. Одна из наиболее знаменитых и сложных для исполнения итальянских арий для сопрано.

* Роль Николо Паганини (Nicolo Paganini) в фильме исполнил знаменитый итальянский скрипач и дирижёр Данило Белардинелли (Danilo Belardinelli).

* Вокальные партии исполняют:
Катерина Манчини (CATERINA MANCINI), Джанни Поджи (GIANNI POGGI), Джулио Нери (GIULIO NERI), Джино Маттера (GINO MATTERA), Хуанита Сариман (JUANITA SARIMAN), Энрико Формичи (ENRICO FORMICHI)

* Оркестр и хор - Римского Оперного Театра
Дирижёр - Оливьеро Де Фабритис (Oliviero De Fabritiis)

IMDb = 6,2/10 (33) - https://www.imdb.com/title/tt0046837/
Кинопоиск = - (29) - https://www.kinopoisk.ru/film/kasta-diva-1954-166312/

ВНИМАНИЕ!!! РИП ФОРМАТА mkv (кодек H.264) ВОСПРОИЗВОДИТСЯ НЕ НА ВСЕХ БЫТОВЫХ ВИДЕОПЛЕЕРАХ!!!

Параметры файла:
Название: Casta Diva (1956, rus_MVO+ita+eng_sub+ita_sub).mkv
Качество видео: DVDRip-AVC
Формат видео: MKV
Размер: 1,36 ГБ (1 465 093 233 байт)
Продолжительность: 01:33:38
Перевод: Профессиональный (многоголосый, закадровый)
Субтитры: английские, итальянские
Оригинальная аудиодорожка: итальянский
Видео: AVC (H264), 720x544 (4:3), 25 fps, 1700 kbps, 0.174 Bits/Pixel
Аудио #1: Dolby AC3, 44.1, stereo (2 ch), 192 kbps – русский
Аудио #2: Dolby AC3, 48 kHz, mono, 192 kbps - итальянский



General
Unique ID : 181854094577823766965674742440876630959 (0x88CFD31AAB407E05DE1632D9ED08E3AF)
Complete name : D:\Films\Kasta-Diva-K-Gallone-1956-DVD5-KG-\Casta Diva (1956, rus_MVO+ita+eng_sub+ita_sub).mkv
Format : Matroska
Format version : Version 4 / Version 2
File size : 1.36 GiB
Duration : 1 h 33 min
Overall bit rate : 2 086 kb/s
Encoded date : UTC 2018-10-24 11:32:12
Writing application : mkvmerge v28.0.0 ('Voice In My Head') 64-bit
Writing library : libebml v1.3.6 + libmatroska v1.4.9

Video
ID : 1
Format : AVC
Format/Info : Advanced Video Codec
Format profile : High@L4.1
Format settings, CABAC : Yes
Format settings, RefFrames : 16 frames
Codec ID : V_MPEG4/ISO/AVC
Duration : 1 h 33 min
Bit rate : 1 700 kb/s
Width : 720 pixels
Height : 544 pixels
Display aspect ratio : 4:3
Frame rate mode : Constant
Frame rate : 25.000 FPS
Color space : YUV
Chroma subsampling : 4:2:0
Bit depth : 8 bits
Scan type : Progressive
Bits/(Pixel*Frame) : 0.174
Stream size : 1.11 GiB (81%)
Writing library : x264 core 146 r2538 121396c
Encoding settings : cabac=1 / ref=16 / deblock=1:0:0 / analyse=0x3:0x133 / me=umh / subme=10 / psy=1 / psy_rd=1.00:0.00 / mixed_ref=1 / me_range=24 / chroma_me=1 / trellis=2 / 8x8dct=1 / cqm=0 / deadzone=21,11 / fast_pskip=1 / chroma_qp_offset=-2 / threads=48 / lookahead_threads=4 / sliced_threads=0 / nr=0 / decimate=1 / interlaced=0 / bluray_compat=0 / constrained_intra=0 / bframes=8 / b_pyramid=2 / b_adapt=2 / b_bias=0 / direct=3 / weightb=1 / open_gop=0 / weightp=2 / keyint=250 / keyint_min=25 / scenecut=40 / intra_refresh=0 / rc_lookahead=60 / rc=2pass / mbtree=1 / bitrate=1700 / ratetol=1.0 / qcomp=0.60 / qpmin=0 / qpmax=69 / qpstep=4 / cplxblur=20.0 / qblur=0.5 / ip_ratio=1.40 / aq=1:1.00
Language : Italian
Default : Yes
Forced : No

Audio #1
ID : 2
Format : AC-3
Format/Info : Audio Coding 3
Format settings, Endianness : Big
Codec ID : A_AC3
Duration : 1 h 33 min
Bit rate mode : Constant
Bit rate : 192 kb/s
Channel(s) : 2 channels
Channel positions : Front: L R
Sampling rate : 44.1 kHz
Frame rate : 28.711 FPS (1536 SPF)
Bit depth : 16 bits
Compression mode : Lossy
Stream size : 129 MiB (9%)
Language : Russian
Service kind : Complete Main
Default : Yes
Forced : No

Audio #2
ID : 3
Format : AC-3
Format/Info : Audio Coding 3
Format settings, Endianness : Big
Codec ID : A_AC3
Duration : 1 h 33 min
Bit rate mode : Constant
Bit rate : 192 kb/s
Channel(s) : 1 channel
Channel positions : Front: C
Sampling rate : 48.0 kHz
Frame rate : 31.250 FPS (1536 SPF)
Bit depth : 16 bits
Compression mode : Lossy
Stream size : 129 MiB (9%)
Language : Italian
Service kind : Complete Main
Default : No
Forced : No

Text #1
ID : 4
Format : UTF-8
Codec ID : S_TEXT/UTF8
Codec ID/Info : UTF-8 Plain Text
Duration : 1 h 30 min
Bit rate : 48 b/s
Count of elements : 870
Stream size : 32.1 KiB (0%)
Language : English
Default : No
Forced : No

Text #2
ID : 5
Format : UTF-8
Codec ID : S_TEXT/UTF8
Codec ID/Info : UTF-8 Plain Text
Duration : 1 h 33 min
Bit rate : 51 b/s
Count of elements : 1205
Stream size : 34.9 KiB (0%)
Language : Italian
Default : Yes
Forced : No








http://fenixclub.com/index.php?showtopic=59461
Rusalochka, 672x496, DVDRip, AVI, 1.38 GB < > CaCa48, 720x544, DVDRip, MKV, 1.36 Gb
http://screenshotcomparison.com/comparison/123060


МОИ РАЗДАЧИ НА ФЕНИКСе: ЗДЕСЬ




Это сообщение отредактировал SanSan48 - 28.10.2018 - 16:01


--------------------
"Спартак" - ЧЕМПИОН!!!

Скрыть подпись


KOP3NHA
№2 Отправлено: 25.10.2018 - 19:26


Посетитель

Группа: Потребители
Регистрация: 25.10.2015
Сообщений: 119
Обитает:
Последний раз был:
cегодня в 11:25




Архивы ОК. Спасибо!
Top
SanSan48
№3 Отправлено: 26.10.2018 - 07:37


"Спартак" - ЧЕМПИОН!!!

Группа: Пользователи
Регистрация: 28.12.2009
Сообщений: 1964
Обитает:
Последний раз был:
cегодня в 19:07




Цитата
( KOP3NHA @ 25.10.2018 - 19:26)
Архивы ОК. Спасибо!

KOP3NHA, Благодарю за информацию!

Приятного всем просмотра!


--------------------
"Спартак" - ЧЕМПИОН!!!

Скрыть подпись
Top
Alpinist
№4 Отправлено: 27.10.2018 - 20:14


Завсегдатай

Группа: Форумчане
Регистрация: 18.08.2008
Сообщений: 349
Обитает:
Последний раз был:
cегодня в 14:51




Было бы не лишним указать, что фильм является по сути ремейком ч/б фильма 1935-го года Кармино Галлоне демонстрировавшегося у нас в качестве "трофейного" под названием "Девушка из Неаполя".
Top
SanSan48
№5 Отправлено: 28.10.2018 - 15:06


"Спартак" - ЧЕМПИОН!!!

Группа: Пользователи
Регистрация: 28.12.2009
Сообщений: 1964
Обитает:
Последний раз был:
cегодня в 19:07




Цитата
( Alpinist @ 27.10.2018 - 20:14)
Было бы не лишним указать, что фильм является по сути ремейком ч/б фильма 1935-го года Кармино Галлоне демонстрировавшегося у нас в качестве "трофейного" под названием "Девушка из Неаполя".

Юрию, персональное спасибо!

Добавил в текст раздачи.


--------------------
"Спартак" - ЧЕМПИОН!!!

Скрыть подпись
Top
1 человек просматривает эту тему (1 гость)
« Предыдущая тема | Зарубежные фильмы | Следующая тема »


 



[Script Execution time: 0,0325]   [23 queries used]   [GZIP enabled]