Заходят многие - остаются лучшие!
Здравствуйте Гость ( Вход | Регистрация ) Выслать повторно письмо для активации
Вход
Ваше имя Пароль Забыли пароль?
Запомнить Вас?
Войти скрытым?



 Правила раздела Новые сообщения раздела  


 

 Статья на первой странице газеты / The Story on Page One (1959), Рита Хэйворт в драме Клиффорда Одетса
surzhoks
  №1 Отправлено: 25.10.2015 - 20:30


Живёт здесь

Группа: Аксакалы
Регистрация: 17.03.2008
Сообщений: 1160
Обитает:
Последний раз был:
вчера в 18:39




Статья на первой странице газеты / The Story on Page One


Страна: США
Жанр: драма
Год выпуска: 1959
Продолжительность: 01:58:00
Режиссер: Клиффорд Одетс / Clifford Odets
В ролях:
Рита Хэйворт / Rita Hayworth ... Josephine Brown / Jo Morris
Энтони Франчоза / Anthony Franciosa ... Victor Santini
Гиг Янг / Gig Young ... Larry Ellis
Милдред Даннок / Mildred Dunnock ... Mrs. Ellis
Хью Гриффит / Hugh Griffith ... Judge Edgar Neilsen
Сэнфорд Мейснер / Sanford Meisner ... Phil Stanley
Роберт Бертон / Robert Burton ... District Attorney Nordeau
Альфред Райдер / Alfred Ryder ... Lt. Mike Morris
Кэтерин Сквайр / Katherine Squire ... Mrs. Hattie Brown
Рэймонд Гринлиф / Raymond Greenleaf ... Judge Carey
Мирна Фэйхи / Myrna Fahey ... Alice
Лео Пенн / Leo Penn ... Morrie Goetz
Шеридан Камрейт / Sheridan Comerate ... Ofcr. Francis Morris

Описание: Привлекательная Джо Моррис и её любовник Ларри Эллис обвиняются в преднамеренном убийстве. Обвинение не вызывает сомнений, потому что жертвой убийства является муж Джо. Для защиты обвинённых был предоставлен бесплатный адвокат Виктор Сантини, у которого серьёзные проблемы с алкоголем. Чтобы справиться с таким трудным делом, Виктору необходимо справиться со своей проблемой. Скоро совершенно неожиданно выясняется, что смерть мужа Джо произошла в результате несчастного случая. С Джо и Ларри снимаются обвинения. Но надолго ли?

Доп. информация:
Огромное спасибо всем причастным к релизу:
рип - Магда,
перевод и озвучивание фильма - Юрий Медведев,
работа со звуком, реавторинг DVD - AlekceyR76,
финансовая поддержка перевода и озвучивания фильма:
Lafajet, Магда, jasenka, елена 22, yanaelisa, neddgu, and76ss, борюська, GalaUkr, mumzik69, voostorg, Simpun, old76, sapog1960, surzhoks, duum100, HippopotamusIV, Ugo927, Лямдазонд, leoder, Patsy+, Wrobel

Есть зеркало на яндекс диск.
Архивы созданы RAR-архиватором с добавлением 3% на восстановление и снабжены sfv-проверочником.
Просьба к первому скачавшему отписаться о сохранности архивов на источнике раздачи.

Раздача рассчитана на месяц. На просмотр линка и скачивание 5 дней!
В случае если вы встали в очередь, а затем отказываетесь от скачивания без объяснения причин, возможен отказ в последующих моих раздачах.



Полное имя ...The Story on Page One.DVDRip.avi
Формат : AVI
Формат/Информация : Audio Video Interleave
Размер файла : 1,62 Гбайт
Продолжительность : 1 ч. 58 м.
Общий поток : 1964 Кбит/сек
Программа кодирования : VirtualDubMod 1.5.4.1 (build 2178/release)
Библиотека кодирования : VirtualDubMod build 2178/release

Видео
Идентификатор : 0
Формат : MPEG-4 Visual
Профиль формата : Advanced Simple@L5
Параметр BVOP формата : 2
Параметр QPel формата : Нет
Параметр GMC формата : Без точки перехода
Параметр матрицы формата : Default (H.263)
Идентификатор кодека : DX50
Идентификатор кодека/Подсказка : DivX 5
Продолжительность : 1 ч. 58 м.
Битрейт : 1566 Кбит/сек
Ширина : 688 пикселей
Высота : 304 пикселя
Соотношение сторон : 2,25:1
Частота кадров : 25,000 кадров/сек
Цветовое пространство : YUV
Субдискретизация насыщенности : 4:2:0
Битовая глубина : 8 бит
Тип развёртки : Прогрессивная
Метод сжатия : С потерями
Бит/(Пиксели*Кадры) : 0.299
Размер потока : 1,29 Гбайт (80%)
Библиотека кодирования : XviD 73

Аудио #1
Идентификатор : 1
Формат : AC-3
Формат/Информация : Audio Coding 3
Расширение режима : CM (complete main)
Параметр Endianness формата : Big
Идентификатор кодека : 2000
Продолжительность : 1 ч. 58 м.
Вид битрейта : Постоянный
Битрейт : 192 Кбит/сек
Каналы : 2 канала
Расположение каналов : Front: L R
Частота : 48,0 КГц
Битовая глубина : 16 бит
Метод сжатия : С потерями
Размер потока : 162 Мбайт (10%)
Выравнивание : Разделение по промежуткам
Продолжительность промежутка : 40 мс. (1,00 видеокадр)
Время предзагрузки промежутка : 500 мс.

Аудио #2
Идентификатор : 2
Формат : AC-3
Формат/Информация : Audio Coding 3
Расширение режима : CM (complete main)
Параметр Endianness формата : Big
Идентификатор кодека : 2000
Продолжительность : 1 ч. 58 м.
Вид битрейта : Постоянный
Битрейт : 192 Кбит/сек
Каналы : 2 канала
Расположение каналов : Front: L R
Частота : 48,0 КГц
Битовая глубина : 16 бит
Метод сжатия : С потерями
Размер потока : 162 Мбайт (10%)
Выравнивание : Разделение по промежуткам
Продолжительность промежутка : 40 мс. (1,00 видеокадр)
Время предзагрузки промежутка : 500 мс.




vjub58
№2 Отправлено: 25.10.2015 - 21:54


Практикующий эсквайр

Группа: Аксакалы
Регистрация: 6.12.2005
Сообщений: 5161
Обитает:
Последний раз был:
вчера в 22:51




Спасибо, все ОК. (mail.ru) pozdrav_buket.gif
Top
1 человек просматривает эту тему (1 гость)
« Предыдущая тема | Зарубежные фильмы | Следующая тема »


 



[Script Execution time: 0,0475]   [22 queries used]   [GZIP enabled]