Здравствуйте Гость ( Вход | Регистрация ) Выслать повторно письмо для активации
Вход
Ваше имя Пароль Забыли пароль?
Запомнить Вас?
Войти скрытым?



Новые сообщения раздела  

 

 Принц Альп / Prince Of The Alps (2007), Телепутешествия - HD
bornik
  №1 Отправлено: 10.07.2017 - 17:08


Воспоминания - это богатства старости.

Группа: Модераторы
Регистрация: 18.08.2008
Сообщений: 972
Обитает:
Последний раз был:
cегодня в 19:14




Принц Альп / Prince Of The Alps (2007)



«Принц Альп» - мы отправимся в Альпы, чтобы оказаться в краю горных лесов и озёр. Здесь мы увидим, как появляется на свет маленький принц – детёныш венценосного оленя. И будем следить за его стремительным ростом и развитием.
Прекрасная природа, которая окружает малыша, таит в себе немало опасностей. Посмотрим, что предстоит пережить оленёнку прежде, чем у него появятся рога.

Название: Принц Альп
Оригинальное название: Prince Of The Alps
Год выпуска: 2007
Жанр: Документальный, природа, фауна, флора
Выпущено: Австрия, Die ARGEntur, США, (PBS) Public Broadcasting Service Nature
Продолжительность: 00:52:42
Субтитры: Русские (мои)

Режиссёр: Клаус Файтенбергер / Klaus Feichtenberger, Отмар Пенкер / Otmar Penker

Программа переведена и озвучена компанией "1•ТВЧ"

Описание: Олень благородный или Марал – самый распространенный вид оленей в Центральной Европе. Они всё ещё обитают здесь благодаря способности адаптироваться к изменениям окружающей среды. Охотники нарушали границы их территории и загоняли их все дальше в леса, но маралы выжили. Фильм расскажет, чем отличаются маралы от косуль, с которыми их часто путают, покажет среду обитания маралов, а также вы узнаете об опасностях, которые для этих животных представляют волки, медведи, и царь природы - человек.








General
Complete name : C:\DVD documental fimls\Принц Альп\Принц Альп (2007).avi
Format : AVI
Format/Info : Audio Video Interleave
File size : 831 MiB
Duration : 52mn 42s
Overall bit rate : 2 203 Kbps
Writing application : VirtualDubMod 1.5.10.2 (build 2540/release)
Writing library : VirtualDubMod build 2540/release

Video
ID : 0
Format : MPEG-4 Visual
Format profile : Advanced Simple@L5
Format settings, BVOP : 2
Format settings, QPel : No
Format settings, GMC : No warppoints
Format settings, Matrix : Default (H.263)
Muxing mode : Packed bitstream
Codec ID : XVID
Codec ID/Hint : XviD
Duration : 52mn 42s
Bit rate : 2 002 Kbps
Width : 720 pixels
Height : 400 pixels
Display aspect ratio : 16:9
Frame rate : 25.000 fps
Color space : YUV
Chroma subsampling : 4:2:0
Bit depth : 8 bits
Scan type : Progressive
Compression mode : Lossy
Bits/(Pixel*Frame) : 0.278
Stream size : 755 MiB (91%)
Writing library : XviD 65

Audio
ID : 1
Format : MPEG Audio
Format version : Version 1
Format profile : Layer 3
Mode : Joint stereo
Codec ID : 55
Codec ID/Hint : MP3
Duration : 52mn 42s
Bit rate mode : Constant
Bit rate : 192 Kbps
Channel(s) : 2 channels
Sampling rate : 48.0 KHz
Compression mode : Lossy
Stream size : 72.4 MiB (9%)
Alignment : Aligned on interleaves
Interleave, duration : 40 ms (1.00 video frame)
Interleave, preload duration : 504 ms
Writing library : LAME3.98r
Encoding settings : -m j -V 4 -q 3 -lowpass 18.6 -b 192


Записались на автоматическое включение в очередь: Alevtina, Nadejdaenergia, baziss, grival406

Если вы хотите, чтобы вас автоматически ставили в очередь на следующие фильмы о природе,
- сообщите об этом в теме последней раздачи.


=================================

Исходником послужил релиз HDTV, найденный на просторах инета!

Архивы созданы RAR-архиватором с добавлением 3% на восстановление и снабжены sfv-проверочником.
Просьба к первому скачавшему отписаться о сохранности архивов на источнике раздачи.

Раздача рассчитана на месяц.

ПРИЯТНОГО ВСЕМ ПРОСМОТРА !!!




--------------------
Безоблачная старость – это миф,
Поскольку наша память – ширь морская,
И к ночи начинается прилив,
Со дна обломки прошлого таская.
Игорь Губерман

Скрыть подпись


kyo
№2 Отправлено: 10.07.2017 - 18:38


Живёт здесь

Группа: Потребители
Регистрация: 21.07.2007
Сообщений: 1831
Обитает:
Последний раз был:
cегодня в 20:11




Архивы в порядке, спасибо !
Top
bornik
№3 Отправлено: 10.07.2017 - 19:03


Воспоминания - это богатства старости.

Группа: Модераторы
Регистрация: 18.08.2008
Сообщений: 972
Обитает:
Последний раз был:
cегодня в 19:14




Цитата
( kyo @ 10.07.2017 - 18:38)
Архивы в порядке, спасибо !

И Вам, kyo, спасибо за добрую весть. happy_fly.gif


--------------------
Безоблачная старость – это миф,
Поскольку наша память – ширь морская,
И к ночи начинается прилив,
Со дна обломки прошлого таская.
Игорь Губерман

Скрыть подпись
Top
grival406
№4 Отправлено: 11.07.2017 - 16:49


Старожил

Группа: Потребители
Регистрация: 3.03.2016
Сообщений: 935
Обитает:
Последний раз был:
cегодня в 18:12




Большое спасибо! happy_fly.gif


--------------------
Я знаю только одного тирана, и это тихий голос совести.
Махатма Ганди

Скрыть подпись
Top
bornik
№5 Отправлено: 12.07.2017 - 03:49


Воспоминания - это богатства старости.

Группа: Модераторы
Регистрация: 18.08.2008
Сообщений: 972
Обитает:
Последний раз был:
cегодня в 19:14




Цитата
( grival406 @ 11.07.2017 - 16:49)
Большое спасибо! happy_fly.gif

grival406, нет проблем! Смотрите и наслаждайтесь. wink2.gif


--------------------
Безоблачная старость – это миф,
Поскольку наша память – ширь морская,
И к ночи начинается прилив,
Со дна обломки прошлого таская.
Игорь Губерман

Скрыть подпись
Top
1 человек просматривает эту тему (1 гость)
« Предыдущая тема | Мир вокруг нас | Следующая тема »


 



[Script Execution time: 0,0345]   [23 queries used]   [GZIP enabled]