Заходят многие - остаются лучшие!
Здравствуйте Гость ( Вход | Регистрация ) Выслать повторно письмо для активации
Вход
Ваше имя Пароль Забыли пароль?
Запомнить Вас?
Войти скрытым?



 Правила раздела Новые сообщения раздела  


 

 Первая конная (2 серии) (1984), Драма,военный;Реж.-В.Любомудров;Роли-В.Спиридонов,Е.Жариков,В.Ларионов
SanSan48
  №1 Отправлено: 30.12.2016 - 11:43


"Спартак" - ЧЕМПИОН!!!

Группа: Пользователи
Регистрация: 28.12.2009
Сообщений: 1810
Обитает:
Последний раз был:
cегодня в 17:24




Первая конная (2 серии) (1984)



Предыдущая раздача:
26.09.2008 (SATrip)

ВСЕХ С НАСТУПАЮЩИМ НОВЫМ ГОДОМ!!!

Жанр: Драма, военный,
Выпущено: СССР, Мосфильм
Год выпуска: 1984
Премьера (СССР): 5 ноября 1984
Премьера (мир): 6 ноября 1986 (Венгрия)
Сценаристы: Валентин Ежов, Владимир Любомудров
Оператор: Владимир Фридкин
Композитор: Эдуард Артемьев
Художники: Георгий Кошелев, Анатолий Кузнецов, В.Романова
Монтажёры: М.Сергеева

Режиссер: Владимир Любомудров

В ролях: Вадим Спиридонов, Евгений Жариков, Всеволод Ларионов, Алексей Ванин, Георгий Мартынюк, Александр Ермаков, Нуржуман Ихтымбаев, Александр Потапов, Владимир Приходько, Виктор Филиппов, Евгений Леонов-Гладышев, Юрий Назаров, Борис Химичев, Виктор Павлов, Андрей Ростоцкий, Светлана Тормахова, Елена Проклова, Наталья Аринбасарова, Елена Драпеко, Владимир Качан, Сергей Проханов, Владимир Кашпур, Антон Табаков, Станислав Чекан, Михаил Кокшенов, Вячеслав Глушков, Геннадий Юхтин, Александр Январёв, Геннадий Корольков, Роман Хомятов, Виктор Шульгин, Андрей Юренев, Олег Измайлов

Описание:
Фильм переносит нас во времена гражданской войны, когда молодую Советскую власть отстаивали первые герои этой страшной междоусобной войны. Красным командирам Семену Буденному и Клименту Ворошилову удалось собрать целую армию «красных кавалеристов» — так началась история походов «по долинам и по взгорьям» легендарной Первой Конной армии. Фильм-легенда, в основе которого один будничный день и один героический бой Первой Конной…

Дополнительная информация: Релиз:

Автор рипа: pmv

Большое спасибо за:
- Исходный чешский DVD9 - alinto

IMDb = 6,0/10 (14) - http://www.imdb.com/title/tt0087905/
Кинопоиск = 5.959 (125) - https://www.kinopoisk.ru/film/42935/

ВНИМАНИЕ!!! РИП ФОРМАТА mkv (кодек H.264) ВОСПРОИЗВОДИТСЯ НЕ НА ВСЕХ БЫТОВЫХ ВИДЕОПЛЕЕРАХ!!!

Параметры файла:
Название файла: Первая конная (1984, 2серии, рус+чех).mkv
Качество видео: DVDRip
Формат видео: MKV
Размер: 1,37 ГБ (1 480 254 608 bytes)
Продолжительность: 02:08:42
Видео: 688@752x320 (2.35:1), XviD 73, 25 fps, 1119 Kbps, 0.203 Bits/Pixel
Аудио #1: AC3, 48 KHz, stereo (2 ch), 192 Kbps - русский
Аудио #2: AC3, 48 KHz, stereo (2 ch), 192 Kbps – чешский дубляж



General
Unique ID : 182811506823157767188692180288393529152 (0x8988372C1E09A3E3BE6D9EAD16094740)
Complete name : D:\torrents\Первая конная (1984, 2серии, рус+чех).mkv
Format : Matroska
Format version : Version 4 / Version 2
File size : 1.38 GiB
Duration : 2h 8mn
Overall bit rate : 1 534 Kbps
Encoded date : UTC 2016-12-21 14:15:11
Writing application : mkvmerge v9.6.0 ('Slave To Your Mind') 64bit
Writing library : libebml v1.3.4 + libmatroska v1.4.5
DURATION : 02:08:41.744000000
NUMBER_OF_FRAMES : 241304
NUMBER_OF_BYTES : 185321472
_STATISTICS_WRITING_APP : mkvmerge v9.6.0 ('Slave To Your Mind') 64bit
_STATISTICS_WRITING_DATE_UTC : 2016-12-21 14:15:11
_STATISTICS_TAGS : BPS DURATION NUMBER_OF_FRAMES NUMBER_OF_BYTES

Video
ID : 1
Format : MPEG-4 Visual
Format profile : Advanced Simple@L5
Format settings, BVOP : Yes
Format settings, QPel : No
Format settings, GMC : No warppoints
Format settings, Matrix : Default (H.263)
Codec ID : V_MS/VFW/FOURCC / XVID
Codec ID/Hint : XviD
Duration : 2h 8mn
Bit rate : 1 119 Kbps
Width : 688 pixels
Height : 320 pixels
Display aspect ratio : 2.35:1
Original display aspect ratio : 2.2:1
Frame rate mode : Constant
Frame rate : 25.000 fps
Color space : YUV
Chroma subsampling : 4:2:0
Bit depth : 8 bits
Scan type : Progressive
Compression mode : Lossy
Bits/(Pixel*Frame) : 0.203
Stream size : 1.01 GiB (73%)
Writing library : XviD 73
Language : Russian
Default : Yes
Forced : No

Audio #1
ID : 2
Format : AC-3
Format/Info : Audio Coding 3
Mode extension : CM (complete main)
Format settings, Endianness : Big
Codec ID : A_AC3
Duration : 2h 8mn
Bit rate mode : Constant
Bit rate : 192 Kbps
Channel(s) : 2 channels
Channel positions : Front: L R
Sampling rate : 48.0 KHz
Bit depth : 16 bits
Compression mode : Lossy
Stream size : 177 MiB (13%)
Language : Russian
Default : Yes
Forced : No

Audio #2
ID : 3
Format : AC-3
Format/Info : Audio Coding 3
Mode extension : CM (complete main)
Format settings, Endianness : Big
Codec ID : A_AC3
Duration : 2h 8mn
Bit rate mode : Constant
Bit rate : 192 Kbps
Channel(s) : 2 channels
Channel positions : Front: L R
Sampling rate : 48.0 KHz
Bit depth : 16 bits
Compression mode : Lossy
Stream size : 177 MiB (13%)
Language : Czech
Default : No
Forced : No








МОИ РАЗДАЧИ НА ФЕНИКСе: ЗДЕСЬ




Это сообщение отредактировал SanSan48 - 30.12.2016 - 18:07


--------------------
"Спартак" - ЧЕМПИОН!!!

Скрыть подпись
murza
№2 Отправлено: 30.12.2016 - 12:34


Гость

Группа: Потребители
Регистрация: 16.01.2014
Сообщений: 4
Последний раз был:
cегодня в 10:14




Спасибо. Все нормально
Top
SanSan48
№3 Отправлено: 30.12.2016 - 12:56


"Спартак" - ЧЕМПИОН!!!

Группа: Пользователи
Регистрация: 28.12.2009
Сообщений: 1810
Обитает:
Последний раз был:
cегодня в 17:24




Цитата
murza @ 30.12.2016 - 12:34
Спасибо. Все нормально

murza, Благодарю за сообщение!

Ещё раз В<C>ЕХ <C> на<C>тупающим Новым 2017 Годом!!

Удачи и успехов в Новом Году!!!




--------------------
"Спартак" - ЧЕМПИОН!!!

Скрыть подпись
Top
grival406
№4 Отправлено: 30.12.2016 - 20:50


Старожил

Группа: Потребители
Регистрация: 3.03.2016
Сообщений: 925
Обитает:
Последний раз был:
вчера в 16:27




БОЛЬШОЕ СПАСИБО!



С НОВЫМ ГОДОМ!!!


--------------------
Я знаю только одного тирана, и это тихий голос совести.
Махатма Ганди

Скрыть подпись
Top
gaidai82
№5 Отправлено: 10.07.2017 - 14:01


Смотрящий. Аксакал в законе.

Группа: Аксакалы
Регистрация: 21.01.2007
Сообщений: 16191
Обитает:
Последний раз был:
16.09.2017 - 17:04






--------------------
ВОР НЕ ВСЕГДА ВОР, А ДУРАК - ЭТО ПОЖИЗНЕННО!

Александр Дюпре /Ж. - П.Бельмондо/ "Игра в четыре руки"




Тело здесь, а душа далеко
Плюну я, в полупьяный конвой.
Тело здесь, для отчета ментам
А душа там, где мать родила.



Порой закрываю глаза и вспоминаю снова... как мама вела в первый класс, как папа нёс с выпускного.

Скрыть подпись
Top
gaidai82
№6 Отправлено: 10.07.2017 - 14:11


Смотрящий. Аксакал в законе.

Группа: Аксакалы
Регистрация: 21.01.2007
Сообщений: 16191
Обитает:
Последний раз был:
16.09.2017 - 17:04






--------------------
ВОР НЕ ВСЕГДА ВОР, А ДУРАК - ЭТО ПОЖИЗНЕННО!

Александр Дюпре /Ж. - П.Бельмондо/ "Игра в четыре руки"




Тело здесь, а душа далеко
Плюну я, в полупьяный конвой.
Тело здесь, для отчета ментам
А душа там, где мать родила.



Порой закрываю глаза и вспоминаю снова... как мама вела в первый класс, как папа нёс с выпускного.

Скрыть подпись
Top
SanSan48
№7 Отправлено: 20.08.2017 - 17:24


"Спартак" - ЧЕМПИОН!!!

Группа: Пользователи
Регистрация: 28.12.2009
Сообщений: 1810
Обитает:
Последний раз был:
cегодня в 17:24




Цитата
gaidai82 @ 10.07.2017 - 14:11


gaidai82, Большое спасибо за советские афиши!


Это сообщение отредактировал SanSan48 - 20.08.2017 - 17:24


--------------------
"Спартак" - ЧЕМПИОН!!!

Скрыть подпись
Top
gaidai82
№8 Отправлено: 21.08.2017 - 11:08


Смотрящий. Аксакал в законе.

Группа: Аксакалы
Регистрация: 21.01.2007
Сообщений: 16191
Обитает:
Последний раз был:
16.09.2017 - 17:04




SanSan48, wink2.gif


--------------------
ВОР НЕ ВСЕГДА ВОР, А ДУРАК - ЭТО ПОЖИЗНЕННО!

Александр Дюпре /Ж. - П.Бельмондо/ "Игра в четыре руки"




Тело здесь, а душа далеко
Плюну я, в полупьяный конвой.
Тело здесь, для отчета ментам
А душа там, где мать родила.



Порой закрываю глаза и вспоминаю снова... как мама вела в первый класс, как папа нёс с выпускного.

Скрыть подпись
Top
1 человек просматривает эту тему (1 гость)
« Предыдущая тема | Отечественное кино | Следующая тема »


 



[Script Execution time: 0,0691]   [24 queries used]   [GZIP enabled]