Заходят многие - остаются лучшие!
Здравствуйте Гость ( Вход | Регистрация ) Выслать повторно письмо для активации
Вход
Ваше имя Пароль Забыли пароль?
Запомнить Вас?
Войти скрытым?



Новые сообщения раздела  

 

 Тайны дикой природы / National Geographic. Secrets Of The Wild (2013), National Geographic
bornik
  №1 Отправлено: 14.02.2017 - 17:26


Воспоминания - это богатства старости.

Группа: Модераторы
Регистрация: 18.08.2008
Сообщений: 862
Обитает:
Последний раз был:
cегодня в 02:44




Тайны дикой природы (3 фильма) / National Geographic. Secrets Of The Wild (2013)



«Тайны дикой природы» - десятилетиями люди пытались приблизиться к диким животным, но когда мы смотрели на них, они тоже смотрели на нас.

Название: Тайны дикой природы
Оригинальное название: Secrets Of The Wild
Год выпуска: 2013
Жанр: Документальный, природа, фауна, флора
Выпущено: Великобритания, Spring Films Ltd, National Geographic Channel
Продолжительность: 02:11:47 (00:43:59 + 00:43:59 + 00:43:59)
Субтитры: Русские (мои)

Режиссёр: Линетт Сингер / Lynette Singer

Текст читает: Олег Белов

Описание: Теперь мы можем незаметно наблюдать за ними в естественных условиях. Новейшие технологии позволяют заглянуть в частную жизнь животных так, что они не узнают об этом. Мы можем снимать из далека, даже с воздуха. Камеры с дистанционным управлением принимают разные обличия и формы. Что бы подобраться к ним поближе можно снимать где угодно, когда угодно, как угодно и днём и ночью. Преданные своему делу натуралисты и создатели фильмов смело идут навстречу трудностям и опасностям, что бы открыть для нас самые сокровенные тайны дикой природы.



01 - На просторах / Exposed
Познакомьтесь с жизнью животных на больших открытых территориях, таких как равнины Серенгети, ледяные просторы Арктики и Тибетское нагорье.







General
Complete name : C:\DVD documental fimls\Тайны дикой природы (2013)\01. Тайны дикой природы - На просторах (2013).avi
Format : AVI
Format/Info : Audio Video Interleave
File size : 694 MiB
Duration : 43mn 59s
Overall bit rate : 2 205 Kbps
Writing application : VirtualDubMod 1.5.10.2 (build 2540/release)
Writing library : VirtualDubMod build 2540/release

Video
ID : 0
Format : MPEG-4 Visual
Format profile : Advanced Simple@L5
Format settings, BVOP : 2
Format settings, QPel : No
Format settings, GMC : No warppoints
Format settings, Matrix : Default (H.263)
Muxing mode : Packed bitstream
Codec ID : XVID
Codec ID/Hint : XviD
Duration : 43mn 59s
Bit rate : 2 003 Kbps
Width : 720 pixels
Height : 400 pixels
Display aspect ratio : 16:9
Frame rate : 25.000 fps
Color space : YUV
Chroma subsampling : 4:2:0
Bit depth : 8 bits
Scan type : Progressive
Compression mode : Lossy
Bits/(Pixel*Frame) : 0.278
Stream size : 630 MiB (91%)
Writing library : XviD 65

Audio
ID : 1
Format : AC-3
Format/Info : Audio Coding 3
Mode extension : CM (complete main)
Codec ID : 2000
Duration : 43mn 59s
Bit rate mode : Constant
Bit rate : 192 Kbps
Channel(s) : 2 channels
Channel positions : Front: L R
Sampling rate : 48.0 KHz
Bit depth : 16 bits
Compression mode : Lossy
Stream size : 60.4 MiB (9%)
Alignment : Split accross interleaves
Interleave, duration : 40 ms (1.00 video frame)
Interleave, preload duration : 500 ms


=================================

02 - В водных глубинах / Going Deep
Удивительные существа прячутся в морях, реках и озерах планеты, но с помощью специального оборудования мы заглянем в их скрытый мир.







General
Complete name : C:\DVD documental fimls\Тайны дикой природы (2013)\02. Тайны дикой природы - В водных глубинах (2013).avi
Format : AVI
Format/Info : Audio Video Interleave
File size : 694 MiB
Duration : 43mn 59s
Overall bit rate : 2 204 Kbps
Writing application : VirtualDubMod 1.5.10.2 (build 2540/release)
Writing library : VirtualDubMod build 2540/release

Video
ID : 0
Format : MPEG-4 Visual
Format profile : Advanced Simple@L5
Format settings, BVOP : 2
Format settings, QPel : No
Format settings, GMC : No warppoints
Format settings, Matrix : Default (H.263)
Muxing mode : Packed bitstream
Codec ID : XVID
Codec ID/Hint : XviD
Duration : 43mn 59s
Bit rate : 2 002 Kbps
Width : 720 pixels
Height : 400 pixels
Display aspect ratio : 16:9
Frame rate : 25.000 fps
Color space : YUV
Chroma subsampling : 4:2:0
Bit depth : 8 bits
Scan type : Progressive
Compression mode : Lossy
Bits/(Pixel*Frame) : 0.278
Stream size : 630 MiB (91%)
Writing library : XviD 65

Audio
ID : 1
Format : AC-3
Format/Info : Audio Coding 3
Mode extension : CM (complete main)
Codec ID : 2000
Duration : 43mn 59s
Bit rate mode : Constant
Bit rate : 192 Kbps
Channel(s) : 2 channels
Channel positions : Front: L R
Sampling rate : 48.0 KHz
Bit depth : 16 bits
Compression mode : Lossy
Stream size : 60.4 MiB (9%)
Alignment : Split accross interleaves
Interleave, duration : 40 ms (1.00 video frame)
Interleave, preload duration : 500 ms


=================================

03 - Затерянные миры / Lost Worlds
В густых лесах и других труднопроходимых местах новые технологии позволяют снимать удивительные моменты из жизни диких животных.







General
Complete name : C:\DVD documental fimls\Тайны дикой природы (2013)\03. Тайны дикой природы - Затерянные миры (2013).avi
Format : AVI
Format/Info : Audio Video Interleave
File size : 694 MiB
Duration : 43mn 59s
Overall bit rate : 2 205 Kbps
Writing application : VirtualDubMod 1.5.10.2 (build 2540/release)
Writing library : VirtualDubMod build 2540/release

Video
ID : 0
Format : MPEG-4 Visual
Format profile : Advanced Simple@L5
Format settings, BVOP : 2
Format settings, QPel : No
Format settings, GMC : No warppoints
Format settings, Matrix : Default (H.263)
Muxing mode : Packed bitstream
Codec ID : XVID
Codec ID/Hint : XviD
Duration : 43mn 59s
Bit rate : 2 003 Kbps
Width : 720 pixels
Height : 400 pixels
Display aspect ratio : 16:9
Frame rate : 25.000 fps
Color space : YUV
Chroma subsampling : 4:2:0
Bit depth : 8 bits
Scan type : Progressive
Compression mode : Lossy
Bits/(Pixel*Frame) : 0.278
Stream size : 630 MiB (91%)
Writing library : XviD 65

Audio
ID : 1
Format : AC-3
Format/Info : Audio Coding 3
Mode extension : CM (complete main)
Codec ID : 2000
Duration : 43mn 59s
Bit rate mode : Constant
Bit rate : 192 Kbps
Channel(s) : 2 channels
Channel positions : Front: L R
Sampling rate : 48.0 KHz
Bit depth : 16 bits
Compression mode : Lossy
Stream size : 60.4 MiB (9%)
Alignment : Split accross interleaves
Interleave, duration : 40 ms (1.00 video frame)
Interleave, preload duration : 500 ms


=================================

Исходником послужил релиз HDTV, найденный на просторах инета!

Архивы созданы RAR-архиватором с добавлением 3% на восстановление и снабжены sfv-проверочником.
Просьба к первому скачавшему отписаться о сохранности архивов на источнике раздачи.

Раздача рассчитана на месяц.

ПРИЯТНОГО ВСЕМ ПРОСМОТРА !!!




--------------------
Безоблачная старость – это миф,
Поскольку наша память – ширь морская,
И к ночи начинается прилив,
Со дна обломки прошлого таская.
Игорь Губерман

Скрыть подпись


Alevtina
№2 Отправлено: 14.02.2017 - 22:11


Время камни собирать...

Группа: Аксакалы
Регистрация: 12.02.2009
Сообщений: 5481
Обитает:
Последний раз был:
вчера в 19:22




bornik, архивы в порядке! Все хорошо! Спасибо за прекрасную раздачу! zdarov1.gif Все так красиво!!! happy_fly.gif


--------------------

Прохожие, купите Доброту!
Лишь за улыбку! Разве ж это много!
Исполните заветную мечту…
И хоть одну из Заповедей Бога!
Снимите маски «гордых» и «крутых»
Купите, хоть немножечко, Терпенья.
И ощутите сердцем, хоть на миг,
Всю прелесть и восторг благодаренья!
Сегодня, АКЦИЯ на Совесть и Любовь!
Притормозите «хаммер» свой, иль «буммер»!
Купите! И волнуйте свою кровь!
От этого ещё никто не умер!


Скрыть подпись
Top
bornik
№3 Отправлено: 15.02.2017 - 02:44


Воспоминания - это богатства старости.

Группа: Модераторы
Регистрация: 18.08.2008
Сообщений: 862
Обитает:
Последний раз был:
cегодня в 02:44




Цитата
( Alevtina @ 14.02.2017 - 22:11)
bornik, архивы в порядке! Все хорошо! Спасибо за прекрасную раздачу! zdarov1.gif Все так красиво!!! happy_fly.gif

И Вам, Alevtina, спасибо за добрую весть. happy_fly.gif


--------------------
Безоблачная старость – это миф,
Поскольку наша память – ширь морская,
И к ночи начинается прилив,
Со дна обломки прошлого таская.
Игорь Губерман

Скрыть подпись
Top
grival406
№4 Отправлено: 5.03.2017 - 07:57


Старожил

Группа: Потребители
Регистрация: 3.03.2016
Сообщений: 836
Обитает:
Последний раз был:
вчера в 17:39




bornik! Большое спасибо!
Любимая передача!


--------------------
Я знаю только одного тирана, и это тихий голос совести.
Махатма Ганди

Скрыть подпись
Top
bornik
№5 Отправлено: 8.03.2017 - 05:34


Воспоминания - это богатства старости.

Группа: Модераторы
Регистрация: 18.08.2008
Сообщений: 862
Обитает:
Последний раз был:
cегодня в 02:44




Цитата
( grival406 @ 5.03.2017 - 07:57)
bornik! Большое спасибо!
Любимая передача!

grival406, пожалуйста.
Любуйтесь на здоровье! wink2.gif


--------------------
Безоблачная старость – это миф,
Поскольку наша память – ширь морская,
И к ночи начинается прилив,
Со дна обломки прошлого таская.
Игорь Губерман

Скрыть подпись
Top
1 человек просматривает эту тему (1 гость)
« Предыдущая тема | Мир вокруг нас | Следующая тема »


 



[Script Execution time: 0,0212]   [23 queries used]   [GZIP enabled]