Заходят многие - остаются лучшие!
Здравствуйте Гость ( Вход | Регистрация ) Выслать повторно письмо для активации
Вход
Ваше имя Пароль Забыли пароль?
Запомнить Вас?
Войти скрытым?



Новые сообщения раздела  

 

 Красавица и Чудовище / Die Schöne und das Biest (2012), Фильм - сказка
bornik
  №1 Отправлено: 3.07.2017 - 19:50


Воспоминания - это богатства старости.

Группа: Модераторы
Регистрация: 18.08.2008
Сообщений: 1036
Обитает:
Последний раз был:
вчера в 02:23




Красавица и Чудовище / Die Schöne und das Biest (2012)



«Красавица и Чудовище» - фильм снят по мотивам сказки Жанны-Мари Лепренс де Бомон «Красавица и чудовище» (La Belle et la Bête, 1757).

Название: Красавица и Чудовище
Оригинальное название: Die Schöne und das Biest
Год выпуска: 2012
Жанр: Сказка, детский, семейный, экранизация
Выпущено: Германия, , Австрия, Metafilm, Moviepool, Provobis Film
Продолжительность: 01:25:39
Премьера (мир): 20 декабря 2012 года
Перевод: Профессиональный (многоголосый закадровый) компания "Игмар"
Cубтитры: нет

Режиссёр: Марк-Андреас Бохерт / Mark-Andreas Bochert

В ролях:
Корнелия Грёшель / Cornelia Gröschel … Elsa
Максимилиан Симонишек / Maximilian Simonischek … Arbo
Юрген Таррах / Jürgen Tarrach … Wirt Hugo
Кристоф Летковски / Christoph Letkowski … Ritter Berthold von Rabenburg
Карстен Крамер / Karsten Kramer … Wenzel
Каролина Вальтер / Carolin Walter … Irmel
Надина Вриц / Nadine Wrietz … Magd Gertrud
Вольфганг Эдельмайер / Wolfgang Edelmayer … Vogt
Йоханнес Зильбершнайдер / Johannes Silberschneider … Pfandleiher
Вольфганг С. Цехмайер / Wolfgang S. Zechmayer … Schäfer

Сценаристы: Готц Брандт / Götz Brandt, Маркус Хертнек / Marcus Hertneck, Irene Wellershoff / Irene Wellershoff
Композитор: Стефан Мария Шнайдер / Stefan Maria Schneider
Продюсеры: Мартин Хороба / Martin Choroba, Бернадетт Шугг / Bernadette Schugg, Томас Тойбнер / Thomas Teubner

Описание: У трактирщика Гуго большие проблемы - он на грани разорения. Его единственное утешение - прекрасная дочь Эльза, за которой ухаживает рыцарь Бертольд. Когда Гуго в поисках денег находит убежище в таинственном замке, судьба готовит ему неожиданное испытание: сорвав в саду розы для Эльзы, трактирщик вдруг видит перед собой Чудовище - наполовину человека, наполовину зверя. Хозяин замка требует в качестве расплаты жизнь. Гуго вымаливает себе прощение, но Чудовище ставит ему условие - трактирщик должен доставить в замок первое живое существо, встретившееся в родном доме. Гуго думает, что это будет его собака, но первой встречной оказывается любимая дочь, и теперь она должна заплатить долг отца...


• Банеры с анонсом следующих передач в раздаче присутствуют.









Исходником послужил релиз HDTV от Pupkinss, взятый с Рутрекера, за что ему БОЛЬШОЕ СПАСИБО!



Архивы созданы RAR-архиватором с добавлением 3% на восстановление и снабжены sfv-проверочником.
Просьба к первому скачавшему отписаться о сохранности архивов на источнике раздачи.

Раздача рассчитана на месяц.

ПРИЯТНОГО ВСЕМ ПРОСМОТРА !!!



General
Complete name : C:\Cinema\Красавица и Чудовище (2012).avi
Format : AVI
Format/Info : Audio Video Interleave
File size : 1.36 GiB
Duration : 1h 28mn
Overall bit rate : 2 197 Kbps
Movie name : Красавица и Чудовище / Die Schöene und das Biest (2012)
Writing application : VirtualDub build 35491/releaseVirtualDubMod 1.5.10.2 (build 2540/release)

Video
ID : 0
Format : MPEG-4 Visual
Format profile : Advanced Simple@L5
Format settings, BVOP : 2
Format settings, QPel : No
Format settings, GMC : No warppoints
Format settings, Matrix : Default (H.263)
Muxing mode : Packed bitstream
Codec ID : XVID
Codec ID/Hint : XviD
Duration : 1h 28mn
Bit rate : 1 995 Kbps
Width : 720 pixels
Height : 400 pixels
Display aspect ratio : 16:9
Frame rate : 25.000 fps
Color space : YUV
Chroma subsampling : 4:2:0
Bit depth : 8 bits
Scan type : Progressive
Compression mode : Lossy
Bits/(Pixel*Frame) : 0.277
Stream size : 1.23 GiB (91%)
Writing library : XviD 65

Audio
ID : 1
Format : AC-3
Format/Info : Audio Coding 3
Mode extension : CM (complete main)
Codec ID : 2000
Duration : 1h 28mn
Bit rate mode : Constant
Bit rate : 192 Kbps
Channel(s) : 2 channels
Channel positions : Front: L R
Sampling rate : 48.0 KHz
Bit depth : 16 bits
Compression mode : Lossy
Stream size : 122 MiB (9%)
Alignment : Split accross interleaves
Interleave, duration : 40 ms (1.00 video frame)
Interleave, preload duration : 500 ms


Другое участие: Pupkinss – предоставление исходной записи
Перезаливает для архива: медикус




--------------------
Безоблачная старость – это миф,
Поскольку наша память – ширь морская,
И к ночи начинается прилив,
Со дна обломки прошлого таская.
Игорь Губерман

Скрыть подпись


baziss
№2 Отправлено: 4.07.2017 - 02:24


Аксакал обыкновенный

Группа: Аксакалы
Регистрация: 4.12.2005
Сообщений: 2657
Обитает:
Последний раз был:
cегодня в 16:50




Архив в порядке. Спасибо большое!


--------------------

Скрыть подпись
Top
bornik
№3 Отправлено: 4.07.2017 - 02:55


Воспоминания - это богатства старости.

Группа: Модераторы
Регистрация: 18.08.2008
Сообщений: 1036
Обитает:
Последний раз был:
вчера в 02:23




Цитата
( baziss @ 4.07.2017 - 02:24)
Архив в порядке. Спасибо большое!

И Вам, baziss, спасибо за добрую весть. happy_fly.gif


--------------------
Безоблачная старость – это миф,
Поскольку наша память – ширь морская,
И к ночи начинается прилив,
Со дна обломки прошлого таская.
Игорь Губерман

Скрыть подпись
Top
caritoons
№4 Отправлено: 19.09.2019 - 15:35


Гость

Группа: Новички
Регистрация: 19.09.2019
Сообщений: 1
Обитает:
Последний раз был:
19.09.2019 - 16:05




Спасибо большое! wink2.gif
Top
1 человек просматривает эту тему (1 гость)
« Предыдущая тема | Детский киносеанс | Следующая тема »


 



[Script Execution time: 0,0645]   [23 queries used]   [GZIP enabled]