Здравствуйте Гость ( Вход | Регистрация ) Выслать повторно письмо для активации
Вход
Ваше имя Пароль Забыли пароль?
Запомнить Вас?
Войти скрытым?



Новые сообщения раздела  

 

 Железный Ганс / Der Eisenhans (2011), Фильм - сказка
bornik
  №1 Отправлено: 9.07.2017 - 19:44


Воспоминания - это богатства старости.

Группа: Модераторы
Регистрация: 18.08.2008
Сообщений: 980
Обитает:
Последний раз был:
вчера в 18:23




Железный Ганс / Der Eisenhans (2011)



«Железный Ганс» - экранизация по мотивам сказки братьев Гримм.

Название: Железный Ганс
Оригинальное название: Der Eisenhans
Год выпуска: 2011
Жанр: Сказка, детский, семейный, экранизация
Выпущено: Германия, , Австрия, Moviepool, Provobis Film, Tellux Film GmbH, Zweites Deutsches Fernsehen (ZDF)
Продолжительность: 01:23:14
Премьера (мир): 24 декабря 2011 года
Перевод: Профессиональный (многоголосый закадровый) компания "Игмар"
Cубтитры: нет

Режиссёр: Мануэль Зибенманн / Manuel Siebenmann

В ролях:
Лоуренс Рапп / Laurence Rupp … Johannes
Паула Шрамм / Paula Schramm … Prinzessin
Михаэль Мендль / Michael Mendl … Eisenhans
Андре Хеннике / André Hennicke … Schwarzer Ritter
Марион Миттерхаммер / Marion Mitterhammer … Königin
Йохан Адам Эст / Johann Adam Oest … König
Вольфганг С. Цехмайер / Wolfgang S. Zechmayer … Ritter 1
Карл Фишер / Karl Fischer … Koch
Александр Ягш / Alexander Jagsch … Haushofmeister

Сценаристы: Якоб Гримм / Jacob Grimm, Вильгельм Гримм / Wilhelm Grimm, Rudolf Herfurtner / Рудольф Херфертнер
Оператор: Херман Дунцендорфер / Hermann Dunzendorfer
Композитор: Кристин Ауфдерхар / Christine Aufderhaar
Продюссеры: Бернадетт Шугг / Bernadette Schugg, Томас Тойбнер / Thomas Teubner

Описание: Жил король, а возле его замка был дремучий лес, в котором водилась разная дичь. Никто из охотников не решался ходить туда, потому что охранял чащу лесной человек по имени Железный Ганс. Но нашелся один смельчак, который поймал Ганса и привел в замок. Лесного человека посадили в клетку, но тот хитростью заставил юного королевича открыть замок, да еще и унес мальчика с собой в лес. Однако Железный Ганс оказался не столь страшен, как представлялось поначалу...


• Банеры с анонсом следующих передач в раздаче присутствуют.









Исходником послужил релиз HDTV от Pupkinss, взятый с Рутрекера, за что ему БОЛЬШОЕ СПАСИБО!



Архивы созданы RAR-архиватором с добавлением 3% на восстановление и снабжены sfv-проверочником.
Просьба к первому скачавшему отписаться о сохранности архивов на источнике раздачи.

Раздача рассчитана на месяц.

ПРИЯТНОГО ВСЕМ ПРОСМОТРА !!!



General
Complete name : C:\Cinema\Железный Ганс (2011).avi
Format : AVI
Format/Info : Audio Video Interleave
File size : 1.28 GiB
Duration : 1h 23mn
Overall bit rate : 2 196 Kbps
Movie name : Железный Ганс / Der Eisenhans (2011)
Writing application : VirtualDubMod 1.5.10.2 (build 2540/release)
Writing library : VirtualDub build 35491/release
Copyright : miha2154

Video
ID : 0
Format : MPEG-4 Visual
Format profile : Advanced Simple@L5
Format settings, BVOP : 2
Format settings, QPel : No
Format settings, GMC : No warppoints
Format settings, Matrix : Default (H.263)
Muxing mode : Packed bitstream
Codec ID : XVID
Codec ID/Hint : XviD
Duration : 1h 23mn
Bit rate : 1 994 Kbps
Width : 720 pixels
Height : 400 pixels
Display aspect ratio : 16:9
Frame rate : 25.000 fps
Color space : YUV
Chroma subsampling : 4:2:0
Bit depth : 8 bits
Scan type : Progressive
Compression mode : Lossy
Bits/(Pixel*Frame) : 0.277
Stream size : 1.16 GiB (91%)
Writing library : XviD 65

Audio
ID : 1
Format : AC-3
Format/Info : Audio Coding 3
Mode extension : CM (complete main)
Codec ID : 2000
Duration : 1h 23mn
Bit rate mode : Constant
Bit rate : 192 Kbps
Channel(s) : 2 channels
Channel positions : Front: L R
Sampling rate : 48.0 KHz
Bit depth : 16 bits
Compression mode : Lossy
Stream size : 114 MiB (9%)
Alignment : Split accross interleaves
Interleave, duration : 40 ms (1.00 video frame)
Interleave, preload duration : 500 ms


Другое участие: Pupkinss – предоставление исходной записи
Перезаливает для архива: медикус




--------------------
Безоблачная старость – это миф,
Поскольку наша память – ширь морская,
И к ночи начинается прилив,
Со дна обломки прошлого таская.
Игорь Губерман

Скрыть подпись


OldLady
№2 Отправлено: 9.07.2017 - 22:33


секрет

Группа: Аксакалы
Регистрация: 26.03.2006
Сообщений: 2975
Последний раз был:
вчера в 23:30




Все в порядке, спасибо!
Top
bornik
№3 Отправлено: 10.07.2017 - 02:31


Воспоминания - это богатства старости.

Группа: Модераторы
Регистрация: 18.08.2008
Сообщений: 980
Обитает:
Последний раз был:
вчера в 18:23




Цитата
OldLady @ 9.07.2017 - 22:33
Все в порядке, спасибо!

И Вам, OldLady, спасибо за добрую весть. happy_fly.gif


--------------------
Безоблачная старость – это миф,
Поскольку наша память – ширь морская,
И к ночи начинается прилив,
Со дна обломки прошлого таская.
Игорь Губерман

Скрыть подпись
Top
1 человек просматривает эту тему (1 гость)
« Предыдущая тема | Детский киносеанс | Следующая тема »


 



[Script Execution time: 0,0418]   [24 queries used]   [GZIP enabled]