Заходят многие - остаются лучшие!
Здравствуйте Гость ( Вход | Регистрация ) Выслать повторно письмо для активации
Вход
Ваше имя Пароль Забыли пароль?
Запомнить Вас?
Войти скрытым?



Новые сообщения раздела  

 

 Улица младшего сына (1962), Старое советское кино, экранизация
bornik
  №1 Отправлено: 14.01.2016 - 18:45


Воспоминания - это богатства старости.

Группа: Модераторы
Регистрация: 18.08.2008
Сообщений: 1036
Обитает:
Последний раз был:
21.05.2019 - 18:04




Улица младшего сына



«Улица младшего сына» - экранизация одноимённого романа Льва Кассиля и Макса Поляновского, посвящённого пионеру-герою, посмертно награждённому орденом Красного Знамени, Володе Дубинину.

Предыдущая раздача 29.04.2009 г. с другими параметрами

Жанр: Детский, военный, экранизация
Выпущено: СССР, Беларусьфильм
Год выпуска: 1962
Премьера (СССР): 21 мая 1962 года

Режиссёр: Лев Голуб

В ролях:
Саша Корнев … Володя Дубинин
Женя Бондаренко … Ваня
Татя Кресик … Светлана
Борис Битюков … Зябрев
Павел Пекур … Лазарев
Иван Шатилло … комиссар Котло
Валентин Черняк … Любкин
Зинаида Дехтярева … мать Володи
Борис Кордунов … отец Володи
Любовь Корнева … Валя
Роман Филиппов … дядя Яша
Валентин Грудинин … Гриценко
Анна Павлова … жена Гриценко
Валентина Ушакова … Учительница Юлия Львовна
Владимир Мартынов … Георгий Петрович
Евгений Григорьев … Ланкин, подпольщик
Витольд Янпавлис … капитан
Глеб Глебов … подпольщик
Борис Владомирский … эпизод
Здислав Стомма … Миронов, предатель
Владимир Шевелено … эпизод
Татьяна Шевченко … эпизод
Нина Левашова … эпизод
Тамара Муженко … жена командира Лазарева
Жаннета Четверикова-Друцкая … эпизод
Пётр Воробьев … эпизод (нет в титрах)

Сценаристы: Лев Кассиль, Макс Поляновский
Оператор: Израиль Пикман
Художник: Владимир Белоусов
Композитор: Владимир Оловников



Описание: В приморском городе Керчь живёт мальчишка Володя. На уроках зачитывается книгой о Чкалове. Конструирует планеры, которые летают дальше других, возится с малышами из подшефного класса. Когда начинается Великая Отечественная война, отец уходит на фронт, а Володя добивается, чтобы его взяли в партизанский отряд...


• Специальный приз Льву Голубу «за работу над детским фильмом» на кинофестивале республик Прибалтики и Белоруссии.







Исходником послужил релиз VHSRip vas8084, взятый с Рутрекера, за что ему БОЛЬШОЕ СПАСИБО!



Архивы созданы RAR-архиватором с добавлением 3% на восстановление и снабжены sfv-проверочником.
Просьба к первому скачавшему отписаться о сохранности архивов на источнике раздачи.

Раздача рассчитана на месяц.

ПРИЯТНОГО ВСЕМ ПРОСМОТРА !!!



General
Complete name : C:\Cinema\Ulitsa mladshego syna (1962) VHSRip.avi
Format : AVI
Format/Info : Audio Video Interleave
File size : 1.33 GiB
Duration : 1h 34mn
Overall bit rate : 2 012 Kbps
Writing application : VirtualDubMod 1.5.10.2 (build 2542/release)
Writing library : VirtualDubMod build 2542/release

Video
ID : 0
Format : MPEG-4 Visual
Format profile : Advanced Simple@L5
Format settings, BVOP : 2
Format settings, QPel : No
Format settings, GMC : No warppoints
Format settings, Matrix : Default (H.263)
Muxing mode : Packed bitstream
Codec ID : XVID
Codec ID/Hint : XviD
Duration : 1h 34mn
Bit rate : 1 810 Kbps
Width : 720 pixels
Height : 544 pixels
Display aspect ratio : 4:3
Frame rate : 25.000 fps
Color space : YUV
Chroma subsampling : 4:2:0
Bit depth : 8 bits
Scan type : Progressive
Compression mode : Lossy
Bits/(Pixel*Frame) : 0.185
Stream size : 1.19 GiB (90%)
Writing library : XviD 65

Audio
ID : 1
Format : MPEG Audio
Format version : Version 1
Format profile : Layer 3
Mode : Joint stereo
Mode extension : MS Stereo
Codec ID : 55
Codec ID/Hint : MP3
Duration : 1h 34mn
Bit rate mode : Constant
Bit rate : 192 Kbps
Channel(s) : 2 channels
Sampling rate : 48.0 KHz
Compression mode : Lossy
Stream size : 130 MiB (10%)
Alignment : Aligned on interleaves
Interleave, duration : 40 ms (1.00 video frame)
Interleave, preload duration : 504 ms
Writing library : LAME3.97
Encoding settings : -m j -V 4 -q 2 -lowpass 18.6 -b 192
Фильм залит в архив.




Это сообщение отредактировал медикус - 14.01.2016 - 19:24


--------------------
Безоблачная старость – это миф,
Поскольку наша память – ширь морская,
И к ночи начинается прилив,
Со дна обломки прошлого таская.
Игорь Губерман

Скрыть подпись


bondsun
№2 Отправлено: 14.01.2016 - 21:42


кучерявый

Группа: Потребители
Регистрация: 17.08.2009
Сообщений: 4831
Обитает:
Последний раз был:
cегодня в 12:16





Благодарствую, архивы в порядке.


--------------------
Пусть рушится мир весь вокруг, пополам,
Пусть часто фортуна не прёт.
Не кофе нас должен бодрить по утрам,
А тот, кто его подаёт.

happy.gif

Скрыть подпись
Top
bornik
№3 Отправлено: 14.01.2016 - 22:02


Воспоминания - это богатства старости.

Группа: Модераторы
Регистрация: 18.08.2008
Сообщений: 1036
Обитает:
Последний раз был:
21.05.2019 - 18:04




Цитата
( bondsun @ 14.01.2016 - 21:42)
Благодарствую, архивы в порядке.

Спасибо и тебе, добрый человек, за такую весть. happy_fly.gif


--------------------
Безоблачная старость – это миф,
Поскольку наша память – ширь морская,
И к ночи начинается прилив,
Со дна обломки прошлого таская.
Игорь Губерман

Скрыть подпись
Top
bornik
№4 Отправлено: 17.02.2016 - 02:52


Воспоминания - это богатства старости.

Группа: Модераторы
Регистрация: 18.08.2008
Сообщений: 1036
Обитает:
Последний раз был:
21.05.2019 - 18:04




Очередь закрыта. Если есть желающие - пишите в ПМ.


--------------------
Безоблачная старость – это миф,
Поскольку наша память – ширь морская,
И к ночи начинается прилив,
Со дна обломки прошлого таская.
Игорь Губерман

Скрыть подпись
Top
1 человек просматривает эту тему (1 гость)
« Предыдущая тема | Детский киносеанс | Следующая тема »


 



[Script Execution time: 0,0960]   [24 queries used]   [GZIP enabled]