Здравствуйте Гость ( Вход | Регистрация ) Выслать повторно письмо для активации
Вход
Ваше имя Пароль Забыли пароль?
Запомнить Вас?
Войти скрытым?



 Правила раздела Новые сообщения раздела  


 

 Кот и скрипка / The Cat and the Fiddle (1934), Рамон Новарро, Джанетт МакДональд / мюзикл, мелодрама
surzhoks
  №1 Отправлено: 8.01.2018 - 18:10


Старожил

Группа: Аксакалы
Регистрация: 17.03.2008
Сообщений: 996
Обитает:
Последний раз был:
cегодня в 20:42




Кот и скрипка / The Cat and the Fiddle


Страна: США
Студия: Metro-Goldwyn-Mayer (MGM)
Жанр: мюзикл, мелодрама, комедия
Год выпуска: 1934
Продолжительность: 01:28:36
Режиссер: Уильям К. Ховард / William K. Howard, Сэм Вуд / Sam Wood
Композитор: Херберт Стотхарт / Herbert Stothart
Субтитры: русские (перевод - Северный))
В ролях:
Рамон Новарро / Ramon Novarro ... Victor
Джанетт МакДональд / Jeanette MacDonald ... Shirley
Фрэнк Морган / Frank Morgan ... Daudet
Чарльз Баттерворф / Charles Butterworth ... Charles
Джин Хершолт / Jean Hersholt ... Professor
Вивьенн Сигал / Vivienne Segal ... Odette
Фрэнк Конрой / Frank Conroy ... Theatre Owner
Генри Арметта / Henry Armetta ... Taxi Driver
Адриэнна Д’Амбрикур / Adrienne D'Ambricourt ... Concierge
Джозеф Которн / Joseph Cawthorn ... Rudy
Херман Бинг / Herman Bing ... Fireman's Band Leader, в титрах не указан
Йола д’Аврил / Yola d'Avril ... Maid in House, в титрах не указана
Макс Дэвидсон / Max Davidson ... Dried Up Old Man, в титрах не указан
Джордж Дэвис / George Davis ... Henri - Conservatory Trombonist, в титрах не указан

Описание: Виктор Флореску – талантливый композитор, обучающийся в брюссельской консерватории под руководством профессора Бертье. Однажды, преследуемый владельцем клуба за неоплаченный счет за еду, Виктор запрыгивает в проезжающее такси, где сталкивается с Ширли Шеридан – начинающей американской певицей. Не имея денег, Виктор расплачивается с таксистом либретто своей незавершенной оперетты «Кот и скрипка». Позже Виктор узнаёт, что богатый импресарио Доде хочет устроить в консерватории прослушивание оперетты. Поэтому надо срочно вернуть либретто...
- По настоянию Джанетт МакДональд когда-то значительная второплановая роль сопрано Одетты в исполнении Вивьен Сигал была существенно сокращена.
- В финале фильма Джанетт Макдональд появляется в том же платье, которое ранее носила Джоан Кроуфорд в ”Танцующей леди” (1933).

Доп. информация:
Огромное спасибо всем причастным к релизу:
рип - Магда,
перевод фильма на русский- Северный,
озвучивание фильма (по русским субтитрам) - fiendover (Виктор Рутилов),
работа со звуком и реавторинг исходного DVD- AlekceyR76,
финансовая поддержка перевода и озвучивания фильма:
Магда, Lafajet, jasenka, елена 22, yanaelisa, leoder, voostorg, HippopotamusIV, sindzi, keg38, борюська, GalaUkr, cementit, sin58

Архивы созданы RAR-архиватором с добавлением 3% на восстановление и снабжены sfv-проверочником.
Просьба к первому скачавшему отписаться о сохранности архивов на источнике раздачи.

Раздача рассчитана на 2 месяца. На просмотр линка и скачивание 5 дней!
В случае если вы встали в очередь, а затем отказываетесь от скачивания без объяснения причин, возможен отказ в последующих моих раздачах.



Полное имя :Cat and the Fiddle.avi
Формат : AVI
Формат/Информация : Audio Video Interleave
Размер файла : 1,46 Гбайт
Продолжительность : 1 ч. 28 м.
Общий поток : 2357 Кбит/сек
Программа кодирования : VirtualDubMod 1.5.10.3 | www.virtualdub-fr.org || (build 2550/release)
Библиотека кодирования : VirtualDubMod build 2550/release

Видео
Идентификатор : 0
Формат : MPEG-4 Visual
Профиль формата : Advanced Simple@L5
Параметр BVOP формата : 2
Параметр QPel формата : Нет
Параметр GMC формата : Без точки перехода
Параметр матрицы формата : Default (H.263)
Идентификатор кодека : DX50
Идентификатор кодека/Подсказка : DivX 5
Продолжительность : 1 ч. 28 м.
Битрейт : 1959 Кбит/сек
Ширина : 640 пикселей
Высота : 480 пикселей
Соотношение сторон : 4:3
Частота кадров : 23,976 кадра/сек
Цветовое пространство : YUV
Субдискретизация насыщенности : 4:2:0
Битовая глубина : 8 бит
Тип развёртки : Прогрессивная
Метод сжатия : С потерями
Бит/(Пиксели*Кадры) : 0.266
Размер потока : 1,21 Гбайт (83%)
Библиотека кодирования : XviD 73

Аудио #1
Идентификатор : 1
Формат : AC-3
Формат/Информация : Audio Coding 3
Расширение режима : CM (complete main)
Параметр Endianness формата : Big
Идентификатор кодека : 2000
Продолжительность : 1 ч. 28 м.
Вид битрейта : Постоянный
Битрейт : 192 Кбит/сек
Каналы : 2 канала
Расположение каналов : Front: L R
Частота : 48,0 КГц
Битовая глубина : 16 бит
Метод сжатия : С потерями
Размер потока : 122 Мбайт (8%)
Выравнивание : Разделение по промежуткам
Продолжительность промежутка : 42 мс. (1,00 видеокадр)
Время предзагрузки промежутка : 500 мс.

Аудио #2
Идентификатор : 2
Формат : AC-3
Формат/Информация : Audio Coding 3
Расширение режима : CM (complete main)
Параметр Endianness формата : Big
Идентификатор кодека : 2000
Продолжительность : 1 ч. 28 м.
Вид битрейта : Постоянный
Битрейт : 192 Кбит/сек
Каналы : 2 канала
Расположение каналов : Front: L R
Частота : 48,0 КГц
Битовая глубина : 16 бит
Метод сжатия : С потерями
Размер потока : 122 Мбайт (8%)
Выравнивание : Разделение по промежуткам
Продолжительность промежутка : 42 мс. (1,00 видеокадр)
Время предзагрузки промежутка : 500 мс.




--------------------
Искусство откладывать деньги сводится к умению сказать “нет” потребительскому обществу.

Скрыть подпись


vjub58
№2 Отправлено: 8.01.2018 - 18:43


Практикующий эсквайр

Группа: Аксакалы
Регистрация: 6.12.2005
Сообщений: 4659
Обитает:
Последний раз был:
cегодня в 21:09




Спасибо, все ОК. pozdrav_buket.gif
Top
Ushkuynik
№3 Отправлено: 8.01.2018 - 21:24


Посетитель

Группа: Потребители
Регистрация: 5.06.2015
Сообщений: 241
Обитает:
Последний раз был:
cегодня в 20:28




Архивы в порядке.
Top
1 человек просматривает эту тему (1 гость)
« Предыдущая тема | Зарубежные фильмы | Следующая тема »


 



[Script Execution time: 0,0323]   [23 queries used]   [GZIP enabled]