Заходят многие - остаются лучшие!
Здравствуйте Гость ( Вход | Регистрация ) Выслать повторно письмо для активации
Вход
Ваше имя Пароль Забыли пароль?
Запомнить Вас?
Войти скрытым?



Новые сообщения раздела  

 

 Андре Рьё. Волшебство вальса / Andre Rieu. Magic Of The Waltz (2016), Classical, neo-classical, violin, DVDRip
Nadejdaenergia
  №1 Отправлено: 8.01.2018 - 16:32


Когда всё плохое уходит, остаётся только хорошее.

Группа: Модераторы
Регистрация: 21.03.2012
Сообщений: 6259
Обитает:
Последний раз был:
17.10.2018 - 16:51




Andre Rieu. Magic Of The Waltz (2016)

Описание
Оригинальное название: Andre Rieu. Magic Of The Waltz
Год выхода: 2016
Жанр: Классическая, инструментальная, концерт
Страна: Германия
Студия: Universal
Продолжительность: 01:32:17
Язык: английский (закадровый, комментатор), нидерландский (речь Андре Рьё)
Исполнитель: Андре Рьё, Johann Strauss Orchestra

О концерте:
Привлекательный и харизматичный Андре Рьё увлекает всех зрителей в мир магии вальса. Влюбитесь снова в Андре Рьё и его оркестр Штрауса, так как они показывают вам концерт - шоу, которое просто бесподобно. Магия Вальса включает совершенно новый “Windsor Waltz”, написанный по случаю 90-летия королевы Елизаветы, знаменитые “Blue Danube”, “Edelweiss”, “The Godfather”, невероятный “And The Waltz Goes On” и многое другое. Андре Рьё - знаменитый голландский скрипач-виртуоз, дирижёр и шоумен, награждённый средствами массовой информации титулом “Король вальса”, считает, что каждый может наслаждаться классической музыкой. Вместе со своим “Оркестром Иоганна Штрауса”, состоящим из 50 музыкантов, он путешествует по пяти континентам. Каждый год более 700 000 поклонников приходят на концерты Андре Рьё, которые по своей популярности занимают место в десятке лучших мировых гастролей.

Официальный сайт

В концерте прозвучали:

01. Viennese Citizen
02. Gold and Silver
03. Morningpapers
04. Seventy - Six Trombones
05. The Godfather Waltz
06. Clogdance
07. The Gypsy Princess Medley, ARV_10
08. Love Live Forever
09. Carnival Of Venice, ARV_10
10. Facherpolonaise
11. Roses From The South
12. Vieni sul mar, ARV_14
13. The White Horse Inn
14. The Beautiful Blue Danube
15. Strauss & Co.








General
Complete name : Andre Rieu - Magic Of The Waltz (2016).mkv
Format : Matroska
Format version : Version 4 / Version 2
File size : 948 MiB
Duration : 1h 32mn
Overall bit rate : 1 437 Kbps
Movie name : Andre Rieu - Magic Of The Waltz (2016)
Encoded date : UTC 2016-05-05 19:12:59
Writing application : mkvmerge v9.1.0 ('Little Earthquakes') 64bit
Writing library : libebml v1.3.3 + libmatroska v1.4.4
Cover : Yes
Attachments : Cover.jpg

Video
ID : 1
Format : AVC
Format/Info : Advanced Video Codec
Format profile : High@L3.1
Format settings, CABAC : Yes
Format settings, ReFrames : 16 frames
Codec ID : V_MPEG4/ISO/AVC
Duration : 1h 32mn
Bit rate : 1 100 Kbps
Width : 720 pixels
Height : 400 pixels
Display aspect ratio : 16:9
Frame rate mode : Constant
Frame rate : 29.970 (30000/1001) fps
Color space : YUV
Chroma subsampling : 4:2:0
Bit depth : 8 bits
Scan type : Progressive
Bits/(Pixel*Frame) : 0.127
Stream size : 726 MiB (77%)
Title : Andre Rieu - Magic Of The Waltz (2016)
Writing library : x264 core 148 r2692kMod 64f4e24
Encoding settings : cabac=1 / ref=16 / deblock=1:0:0 / analyse=0x3:0x133 / me=umh / subme=10 / psy=1 / fade_compensate=0.00 / psy_rd=1.00:0.00 / mixed_ref=1 / me_range=24 / chroma_me=1 / trellis=2 / 8x8dct=1 / cqm=0 / deadzone=21,11 / fast_pskip=1 / chroma_qp_offset=-2 / threads=10 / lookahead_threads=1 / sliced_threads=0 / slices=4 / nr=0 / decimate=1 / interlaced=0 / bluray_compat=0 / constrained_intra=0 / fgo=0 / bframes=8 / b_pyramid=2 / b_adapt=2 / b_bias=0 / direct=3 / weightb=1 / open_gop=0 / weightp=2 / keyint=300 / keyint_min=25 / scenecut=40 / intra_refresh=0 / rc_lookahead=60 / rc=2pass / mbtree=1 / bitrate=1100 / ratetol=1.0 / qcomp=0.60 / qpmin=0 / qpmax=69 / qpstep=4 / cplxblur=20.0 / qblur=0.5 / ip_ratio=1.40 / aq=1:1.00
Language : English
Default : Yes
Forced : No

Audio
ID : 2
Format : AAC
Format/Info : Advanced Audio Codec
Format profile : LC
Codec ID : A_AAC
Duration : 1h 32mn
Bit rate : 335 Kbps
Channel(s) : 2 channels
Channel positions : Front: L R
Sampling rate : 48.0 KHz
Frame rate : 46.875 fps (1024 spf)
Compression mode : Lossy
Delay relative to video : 20ms
Stream size : 221 MiB (23%)
Title : AAC-LC 2.0 48kHz@335kbps
Language : English
Default : Yes
Forced : No

Menu
00:00:00.000 : en:01. Viennese Citizen
00:07:52.100 : en:02. Gold and Silver
00:18:22.634 : en:03. Morningpapers
00:22:55.068 : en:04. Seventy - Six Trombones
00:24:43.769 : en:05. The Godfather Waltz
00:29:33.470 : en:06. Clogdance
00:33:09.071 : en:07. The Gypsy Princess Medley, ARV_10
00:40:11.071 : en:08. Love Live Forever
00:46:39.805 : en:09. Carnival Of Venice, ARV_10
00:51:03.439 : en:10. Facherpolonaise
00:52:26.939 : en:11. Roses From The South
01:04:01.773 : en:12. Vieni sul mar, ARV_14
01:08:53.741 : en:13. The White Horse Inn
01:18:51.542 : en:14. The Beautiful Blue Danube
01:24:58.443 : en:15. Strauss & Co.
01:29:17.977 : en:-= credits =-


Релиз Nickolas3434

ВНИМАНИЕ! РИП ФОРМАТА MKV (кодек H.264) ВОСПРОИЗВОДИТСЯ НЕ НА ВСЕХ БЫТОВЫХ ВИДЕОПЛЕЕРАХ!!!

Архив RAR снабжён sfv-проверочником. Раздача рассчитана на месяц.

Просьба первым скачавшим сообщить о состоянии архива.


Прекрасной встречи с Вечным вальсом!




--------------------


1. Только надеяться - мало толка.
И все-таки, разумеется,
надо надеяться, но только
НЕ ТОЛЬКО надеяться.

2. Мудрость простейших истин признав,
Повесь на стену себе
Знак сокровенный, таинственный Знак
ВТВ.
И если к вершине долгий путь
Стал непосильным бременем –
Вспомни, прежде чем повернуть:
Всё Требует Времени…


Piet Hein Jr.

Скрыть подпись


dr12
№2 Отправлено: 8.01.2018 - 18:59


Глубокоуважаемый шкаф

Группа: Аксакалы
Регистрация: 1.09.2007
Сообщений: 3220
Обитает:
Последний раз был:
вчера в 20:54




Замечательно скачалось и прелестно распаковалось.
Спасибо! chveti.gif


--------------------
"Я нахожу, что человек может быть полезен своей стране только в том случае, если ясно видит ее; я думаю, что время слепых влюбленностей прошло, что теперь мы прежде всего обязаны родине истиной. Я люблю мое отечество, как Петр Великий научил меня любить его."
© П.Я.Чаадаев

Скрыть подпись
Top
Al1
№3 Отправлено: 8.01.2018 - 19:05


Попрошу без ярлыков!

Группа: Потребители
Регистрация: 12.03.2010
Сообщений: 437
Последний раз был:
cегодня в 09:19




OK на всех этапах.
Спасибо!
Top
Nadejdaenergia
№4 Отправлено: 9.01.2018 - 08:30


Когда всё плохое уходит, остаётся только хорошее.

Группа: Модераторы
Регистрация: 21.03.2012
Сообщений: 6259
Обитает:
Последний раз был:
17.10.2018 - 16:51




dr12, Al1, благодарю!


--------------------


1. Только надеяться - мало толка.
И все-таки, разумеется,
надо надеяться, но только
НЕ ТОЛЬКО надеяться.

2. Мудрость простейших истин признав,
Повесь на стену себе
Знак сокровенный, таинственный Знак
ВТВ.
И если к вершине долгий путь
Стал непосильным бременем –
Вспомни, прежде чем повернуть:
Всё Требует Времени…


Piet Hein Jr.

Скрыть подпись
Top
Nadejdaenergia
№5 Отправлено: 4.03.2018 - 15:37


Когда всё плохое уходит, остаётся только хорошее.

Группа: Модераторы
Регистрация: 21.03.2012
Сообщений: 6259
Обитает:
Последний раз был:
17.10.2018 - 16:51




Все заливы на Облако сохраняются. При желании скачать пишите в ПМ.


--------------------


1. Только надеяться - мало толка.
И все-таки, разумеется,
надо надеяться, но только
НЕ ТОЛЬКО надеяться.

2. Мудрость простейших истин признав,
Повесь на стену себе
Знак сокровенный, таинственный Знак
ВТВ.
И если к вершине долгий путь
Стал непосильным бременем –
Вспомни, прежде чем повернуть:
Всё Требует Времени…


Piet Hein Jr.

Скрыть подпись
Top
1 человек просматривает эту тему (1 гость)
« Предыдущая тема | Музыкальное видео | Следующая тема »


 



[Script Execution time: 0,0727]   [23 queries used]   [GZIP enabled]