Заходят многие - остаются лучшие!
Здравствуйте Гость ( Вход | Регистрация ) Выслать повторно письмо для активации
Вход
Ваше имя Пароль Забыли пароль?
Запомнить Вас?
Войти скрытым?



 Правила раздела Новые сообщения раздела  


 

 Голем: пришествие в мир / Голлем, как он пришёл в мир / Der Golem, wie er in die Welt kam / The Golem: How He Came Into the World (1920) [Немое кино], Ужасы,мистика;Реж.-П.Вегенер,К.Бёзе;Роли-П.Вегенер,А.Штайнрюк,Л.Салмон
SanSan48
  №1 Отправлено: 1.08.2019 - 14:50


"Спартак" - ЧЕМПИОН!!!

Группа: Пользователи
Регистрация: 28.12.2009
Сообщений: 2076
Обитает:
Последний раз был:
вчера в 20:06




Голем: пришествие в мир / Голлем, как он пришёл в мир / Der Golem, wie er in die Welt kam (1920)



Предыдущие раздачи:
10.04.2013 (DVDRip)
11.09.2007 (DVDRip)

Жанр: Ужасы, мистика, немое кино
Выпущено: Германия, Projektion-AG Union (PAGU)
Год выпуска: 1920
Премьера (мир): 29 октября 1920 (Германия), 21 февраля 1921 (Финляндия), 19 июня 1921 (США)
Сценаристы: Хенрик Галеен / Henrik Galeen, Пауль Вегенер / Paul Wegener
Операторы: Карл Фройнд / Karl Freund, Гвидо Зеебер / Guido Seeber
Художники: Ханс Пёльциг / Hans Poelzig, Курт Рихтер / Kurt Richter, Рохус Глизе / Rochus Gliese

Режиссёры: Пауль Вегенер / Paul Wegener, Карл Бёзе / Carl Boese

В ролях:
Пауль Вегенер / Paul Wegener ... Der Golem / The Golem
Альберт Штайнрюк / Albert Steinrück ... Der Rabbi Löw / Rabbi Loew
Лида Салмонова / Lyda Salmonova ... Miriam, des Rabbi Tochter / Miriam, the Rabbi's Daughter
Эрнст Дойч / Ernst Deutsch ... Der Rabbi Famulus / Rabbi Famulus
Ханс Штюрм / Hans Stürm ... Der Rabbi Jehuda, der Älteste der Gemeinde
Макс Кронерт / Max Kronert ... Der Tempeldiener / Temple Servant
Отто Гебюр / Otto Gebühr ... Der Kaiser / Emperor Luhois
Доре Пецольд / Dore Paetzold ... Des Kaisers Kebse / The Emperor Kebse
Лотар Мютель /Lothar Müthel ... Der Junker Florian / Knight Florian
Грета Шрёдер / Greta Schröder ... Ein Mägdelein mit der Rose / Little Girl with Rose
Лони Нест / Loni Nest ... Ein kleines Mädchen / Little Girl
Карл Эберт / Carl Ebert ... Temple Servant
Фриц Фельд / Fritz Feld ... Jester
Урсула Нест / Ursula Nest ... Little Girl

Описание: Действие происходит в конце XVI века в пражском гетто.
Раввин Лёв (Альберт Штайнрюк) видит, что звезды предвещают бедствие для его народа. Рассказав о своих наблюдения раввину Йехуде, он принимает решение собрать старейшин гетто. В это время император Рудольф II (Ханс Штюрм) подписывает декрет об изгнании евреев из Праги под страхом смертной казни, обвиняя их в том, что своими чарами они наслали на город чуму. С посланием в гетто отправляется рыцарь Флориан (Лотар Мютель). Раввин Лёв тем временем отыскивает в древних фолиантах инструкцию по оживлению, слепленного им из глины, Голема, призванного спасти еврейский народ...
Фильм основан на, возникшей в Праге, известной еврейской легенде об искусственном человеке («големе»), созданном из глины для исполнения разных «чёрных» работ, трудных поручений, и главным образом для защиты еврейской общины. Этот фильм стал одним из наиболее значительных фильмов немецкого киноэкспрессионизма и классическим воплощением знаменитого сюжета.

Дополнительная информация:
Релиз:

Исходник найден в сети.

Автор рипа: pmv

Большое спасибо за:
- аудиодорожку с русской озвучкой («Светла») - bwv8bit
- синхронизацию звуковой дорожки с русской озвучкой - pmv
- русские субтитры - 7ime 7raveller

* Аудиодорожка с русской одноголосой закадровой озвучкой от «Светлы», взятая с раздачи
https://ru-tra-cker.org/forum/viewtopic.php?t=4495231, содержит музыкальное оформление, выполненное Алёшей Циммерманном (Aljoscha Zimmermann) (в озвучке звучит как Джозеф Циммерманн)
2-я аудиодорожка – музыкальное оформление на основе электроакустической партитуры Адмира Шкуртай (Admir Shkurtaj).
3-я аудиодорожка - музыкальное оформление на основе партитуры Стивена Хорна (Stephen Horne) с фортепиано и оркестровым аккомпанементом.

* Русские субтитры, взятые с раздачи https://ru-tra-cker.org/forum/viewtopic.php?t=3471226, были подкорректированы и синхронизированы с данной раздачей.

IMDb = 7,2/10 (5 806) - https://www.imdb.com/title/tt0011237/
Кинопоиск = 6.941 (692) - https://www.kinopoisk.ru/film/74791/

ВНИМАНИЕ!!! РИП ФОРМАТА mkv (кодек H.264) ВОСПРОИЗВОДИТСЯ НЕ НА ВСЕХ БЫТОВЫХ ВИДЕОПЛЕЕРАХ!!!

Параметры файла:
Название: Der Golem, wie er in die Welt kam (1920, rus_VO+eng+ger+rus_sub+sub_eng).mkv
Качество видео: HDrip-AVC
Формат видео: MKV
Размер: 1,41 ГБ (1 515 820 189 байт)
Продолжительность: 01:15:27
Озвучка: одноголосая закадровая (только на Интертитры) – «Светла»
Интертитры: английские
Субтитры: русские + английские
Оригинальная аудиодорожка: музыкальное оформление - Алёша Циммерманн (Aljoscha Zimmermann)
Дополнительная аудиодорожка: музыкальное оформление - Адмир Шкуртай (Admir Shkurtaj)
Дополнительная аудиодорожка: музыкальное оформление - Стивен Хорн (Stephen Horne)
Видео: AVC (H264), 864x648 (4:3), 20 fps, 2100 kbps, 0.188 Bits/Pixel
Аудио #1: AC3, 48 KHz, stereo (2 ch), 192 kbps - музыкальное оформление с русской озвучкой
Аудио #2: AC3, 48 KHz, stereo (2 ch), 192 kbps - музыкальное оформление
Аудио #3: AC3, 48 KHz, stereo (2 ch), 192 kbps - музыкальное оформление



General
Unique ID : 170570180514164915530477749868853656494 (0x80529F3010DB7098ABC40942AF6AFBAE)
Complete name : D:\torrents\Der Golem, wie er in die Welt kam (1920, rus_VO + rus_sub+sub_eng).mkv
Format : Matroska
Format version : Version 4 / Version 2
File size : 1.41 GiB
Duration : 1 h 15 min
Overall bit rate : 2 679 kb/s
Encoded date : UTC 2019-07-30 18:00:49
Writing application : mkvmerge v6.7.0 ('Back to the Ground') 32bit built on Jan 8 2014 15:03:17
Writing library : libebml v1.3.0 + libmatroska v1.4.1

Video
ID : 1
Format : AVC
Format/Info : Advanced Video Codec
Format profile : High@L4.1
Format settings, CABAC : Yes
Format settings, RefFrames : 14 frames
Codec ID : V_MPEG4/ISO/AVC
Duration : 1 h 15 min
Bit rate : 2 100 kb/s
Width : 864 pixels
Height : 648 pixels
Display aspect ratio : 4:3
Frame rate mode : Constant
Frame rate : 20.000 FPS
Color space : YUV
Chroma subsampling : 4:2:0
Bit depth : 8 bits
Scan type : Progressive
Bits/(Pixel*Frame) : 0.188
Stream size : 1.08 GiB (77%)
Writing library : x264 core 146 r2538 121396c
Encoding settings : cabac=1 / ref=14 / deblock=1:0:0 / analyse=0x3:0x133 / me=umh / subme=10 / psy=1 / psy_rd=1.00:0.00 / mixed_ref=1 / me_range=24 / chroma_me=1 / trellis=2 / 8x8dct=1 / cqm=0 / deadzone=21,11 / fast_pskip=1 / chroma_qp_offset=-2 / threads=48 / lookahead_threads=5 / sliced_threads=0 / nr=0 / decimate=1 / interlaced=0 / bluray_compat=0 / constrained_intra=0 / bframes=8 / b_pyramid=2 / b_adapt=2 / b_bias=0 / direct=3 / weightb=1 / open_gop=0 / weightp=2 / keyint=250 / keyint_min=20 / scenecut=40 / intra_refresh=0 / rc_lookahead=60 / rc=2pass / mbtree=1 / bitrate=2100 / ratetol=1.0 / qcomp=0.60 / qpmin=0 / qpmax=69 / qpstep=4 / cplxblur=20.0 / qblur=0.5 / ip_ratio=1.40 / aq=1:1.00
Language : German
Default : Yes
Forced : No

Audio #1
ID : 2
Format : AC-3
Format/Info : Audio Coding 3
Format settings, Endianness : Big
Codec ID : A_AC3
Duration : 1 h 15 min
Bit rate mode : Constant
Bit rate : 192 kb/s
Channel(s) : 2 channels
Channel positions : Front: L R
Sampling rate : 48.0 kHz
Frame rate : 31.250 FPS (1536 SPF)
Bit depth : 16 bits
Compression mode : Lossy
Stream size : 104 MiB (7%)
Language : Russian
Service kind : Complete Main
Default : Yes
Forced : No

Audio #2
ID : 3
Format : AC-3
Format/Info : Audio Coding 3
Format settings, Endianness : Big
Codec ID : A_AC3
Duration : 1 h 15 min
Bit rate mode : Constant
Bit rate : 192 kb/s
Channel(s) : 2 channels
Channel positions : Front: L R
Sampling rate : 48.0 kHz
Frame rate : 31.250 FPS (1536 SPF)
Bit depth : 16 bits
Compression mode : Lossy
Stream size : 104 MiB (7%)
Language : English
Service kind : Complete Main
Default : No
Forced : No

Audio #3
ID : 4
Format : AC-3
Format/Info : Audio Coding 3
Format settings, Endianness : Big
Codec ID : A_AC3
Duration : 1 h 15 min
Bit rate mode : Constant
Bit rate : 192 kb/s
Channel(s) : 2 channels
Channel positions : Front: L R
Sampling rate : 48.0 kHz
Frame rate : 31.250 FPS (1536 SPF)
Bit depth : 16 bits
Compression mode : Lossy
Stream size : 104 MiB (7%)
Language : German
Service kind : Complete Main
Default : No
Forced : No

Text #1
ID : 5
Format : UTF-8
Codec ID : S_TEXT/UTF8
Codec ID/Info : UTF-8 Plain Text
Language : Russian
Default : Yes
Forced : No

Text #2
ID : 6
Format : UTF-8
Codec ID : S_TEXT/UTF8
Codec ID/Info : UTF-8 Plain Text
Language : English
Default : No
Forced : No








МОИ РАЗДАЧИ НА ФЕНИКСе: ЗДЕСЬ




Это сообщение отредактировал SanSan48 - 1.08.2019 - 14:54


--------------------
"Спартак" - ЧЕМПИОН!!!

Скрыть подпись


Kuzya111
№2 Отправлено: 1.08.2019 - 16:19


Живёт здесь

Группа: Аксакалы
Регистрация: 15.03.2008
Сообщений: 1846
Обитает:
Последний раз был:
вчера в 20:12




Архивы в порядке yes.gif
Спасибо!
Top
SanSan48
№3 Отправлено: 1.08.2019 - 16:38


"Спартак" - ЧЕМПИОН!!!

Группа: Пользователи
Регистрация: 28.12.2009
Сообщений: 2076
Обитает:
Последний раз был:
вчера в 20:06




Цитата
( Kuzya111 @ 1.08.2019 - 16:19)
Архивы в порядке yes.gif
Спасибо!

Kuzya111, Благодарю за сообщение!

Приятного всем просмотра!


--------------------
"Спартак" - ЧЕМПИОН!!!

Скрыть подпись
Top
1 человек просматривает эту тему (1 гость)
« Предыдущая тема | Зарубежные фильмы | Следующая тема »


 



[Script Execution time: 0,0836]   [24 queries used]   [GZIP enabled]