Заходят многие - остаются лучшие!
Здравствуйте Гость ( Вход | Регистрация ) Выслать повторно письмо для активации
Вход
Ваше имя Пароль Забыли пароль?
Запомнить Вас?
Войти скрытым?



 Правила раздела Новые сообщения раздела  


 

 Ягуар (1986), Драма;Реж.-С.Аларкон;Роли-С.Векслер,И.Верник,С.Газаров,В.Татосов,В.Шил
SanSan48
  №1 Отправлено: 19.09.2019 - 15:30


"Спартак" - ЧЕМПИОН!!!

Группа: Пользователи
Регистрация: 28.12.2009
Сообщений: 2169
Обитает:
Последний раз был:
вчера в 15:36




Ягуар (1986)



Предыдущие раздачи:
8.05.2012 (SATrip)
30.05.2008 (VHSrip)

Жанр: Драма
Выпущено: СССР, Мосфильм
Год выпуска: 1986
Премьера (мир): 13 октября 1986
Премьера (мир): 1987 (Германия (ГДР))
Сценаристы: Себастьян Аларкон / Sebastián Alarcón, Татьяна Яковлева
Оператор: Анатолий Иванов
Композиторы: Себастьян Аларкон / Sebastián Alarcón, Виктор Бабушкин
Художники: Ирина Шретер, З.Дудорова
Монтажёр: В.Остринская

Режиссёр: Себастьян Аларкон / Sebastián Alarcón

В ролях:
Сергей Векслер … Ягуар, курсант, а затем отважный борец с режимом Пиночета
Артём Каминский … Поэт (Альберто Фернандес)
Адель Аль-Хадад … Раб (Рикардо Арана)
Сергей Газаров … лейтенант Гамбоа
Янина Хачатурова … Тереса
Владимир Татосов … полковник, начальник военного училища
Всеволод Шиловский … майор
Ислам Казиев … сержант Песоа
Бахром Акрамов … Питалуга
Сергей Шкаликов … Удав, курсант
Игорь Верник … Кава, курсант
Михаил Лакшин … Курчавый, курсант
Арслан Казибеев … Арроспиде
Олег Лазиев … Вальяно
Григорий Лямпе … отец Араны
Нина Тер-Осипян … тётя Тересы, портниха
Екатерина Куравлёва … жена лейтенанта Гамбоа

Описание: По мотивам романа перуанского писателя Марио Варгаса Льосы ( Mario Vargas Llosa) "Город и псы".
Вся сюжетная линия выстраивается, в основном, вокруг курсанта военного училища по прозвищу Ягуар, неформального лидера курса. Будучи от природы волевым и решительным, способен постоять за себя и заступиться за товарищей. Справедлив, честен и предан. Но гибель сокурсника, участвовавший в подавлении беспорядков, организованные "марксистами", несколько изменили отношение Ягуара к власти, по сути, принадлежавшая военным. Череда событий, связанные с конфликтами и обвинениями, пошатнули его лидерство. Разочаровавшись в выборе профессии военного, покидает училище и примыкает к оппозиции…

Дополнительная информация:
Релиз:

Исходник найден в сети.

Автор рипа: pmv

IMDb = 6,8/10 (28) - https://www.imdb.com/title/tt0092256/
Кинопоиск = 6.725 (187) - https://www.kinopoisk.ru/film/42416/

ВНИМАНИЕ!!! РИП ФОРМАТА mkv (кодек H.264) ВОСПРОИЗВОДИТСЯ НЕ НА ВСЕХ БЫТОВЫХ ВИДЕОПЛЕЕРАХ!!!

Параметры файла:
Название: Ягуар (1986).mkv
Качество видео: WEB-DLRip-AVC
Формат видео: MKV
Размер: 1,34 ГБ (1 449 668 121 байт)
Продолжительность: 01:28:02
Видео: AVC (H264), 1152x496 (2.35:1), 24 fps, 2000 kbps, 0.146 Bits/Pixel
Аудио: AC3, 48 KHz, stereo (2 ch), 192 kbps



General
Unique ID : 121437622014449354913367322438195239662 (0x5B5C0906E21F4188386BF60B1C8C5AEE)
Complete name : D:\torrents\Ягуар (1986).mkv
Format : Matroska
Format version : Version 4 / Version 2
File size : 1.35 GiB
Duration : 1 h 28 min
Overall bit rate : 2 196 kb/s
Encoded date : UTC 2019-09-16 01:20:33
Writing application : mkvmerge v37.0.0 ('Leave It') 64-bit
Writing library : libebml v1.3.9 + libmatroska v1.5.2

Video
ID : 1
Format : AVC
Format/Info : Advanced Video Codec
Format profile : High@L4.1
Format settings, CABAC : Yes
Format settings, RefFrames : 14 frames
Codec ID : V_MPEG4/ISO/AVC
Duration : 1 h 28 min
Bit rate : 2 000 kb/s
Width : 1 152 pixels
Height : 496 pixels
Display aspect ratio : 2.35:1
Frame rate mode : Constant
Frame rate : 24.000 FPS
Color space : YUV
Chroma subsampling : 4:2:0
Bit depth : 8 bits
Scan type : Progressive
Bits/(Pixel*Frame) : 0.146
Stream size : 1.23 GiB (91%)
Writing library : x264 core 130 r2273 b3065e6
Encoding settings : cabac=1 / ref=14 / deblock=1:0:0 / analyse=0x3:0x133 / me=umh / subme=10 / psy=1 / psy_rd=1.00:0.00 / mixed_ref=1 / me_range=24 / chroma_me=1 / trellis=2 / 8x8dct=1 / cqm=0 / deadzone=21,11 / fast_pskip=1 / chroma_qp_offset=-2 / threads=48 / lookahead_threads=3 / sliced_threads=0 / nr=0 / decimate=1 / interlaced=0 / bluray_compat=0 / constrained_intra=0 / bframes=8 / b_pyramid=2 / b_adapt=2 / b_bias=0 / direct=3 / weightb=1 / open_gop=0 / weightp=2 / keyint=250 / keyint_min=24 / scenecut=40 / intra_refresh=0 / rc_lookahead=60 / rc=2pass / mbtree=1 / bitrate=2000 / ratetol=1.0 / qcomp=0.60 / qpmin=0 / qpmax=69 / qpstep=4 / cplxblur=20.0 / qblur=0.5 / ip_ratio=1.40 / aq=1:1.00
Language : Russian
Default : Yes
Forced : No

Audio
ID : 2
Format : AC-3
Format/Info : Audio Coding 3
Format settings, Endianness : Big
Codec ID : A_AC3
Duration : 1 h 28 min
Bit rate mode : Constant
Bit rate : 192 kb/s
Channel(s) : 2 channels
Channel positions : Front: L R
Sampling rate : 48.0 kHz
Frame rate : 31.250 FPS (1536 SPF)
Bit depth : 16 bits
Compression mode : Lossy
Delay relative to video : 28 ms
Stream size : 121 MiB (9%)
Language : Russian
Service kind : Complete Main
Default : Yes
Forced : No








МОИ РАЗДАЧИ НА ФЕНИКСе: ЗДЕСЬ




Это сообщение отредактировал SanSan48 - 19.09.2019 - 15:57


--------------------
"Спартак" - ЧЕМПИОН!!!

Скрыть подпись


18052006
№2 Отправлено: 19.09.2019 - 16:35


Посетитель

Группа: Потребители
Регистрация: 29.04.2010
Сообщений: 272
Обитает:
Последний раз был:
вчера в 17:03




Все собралось и скачалось без проблем, спасибо!
Top
SanSan48
№3 Отправлено: 19.09.2019 - 17:05


"Спартак" - ЧЕМПИОН!!!

Группа: Пользователи
Регистрация: 28.12.2009
Сообщений: 2169
Обитает:
Последний раз был:
вчера в 15:36




Цитата
( 18052006 @ 19.09.2019 - 16:35)
Все собралось и скачалось без проблем, спасибо!

18052006, Благодарю за информацию!

Приятного всем просмотра!


--------------------
"Спартак" - ЧЕМПИОН!!!

Скрыть подпись
Top
gaidai82
№4 Отправлено: 20.09.2019 - 13:14


Смотрящий. Аксакал в законе.

Группа: Аксакалы
Регистрация: 21.01.2007
Сообщений: 16514
Обитает:
Последний раз был:
вчера в 18:47




SanSan48 ОГРОМНОЕ спасибо за фильм. Качество ЗАШИБИСЬ!!! Еще бы Аларкона в таком качестве!!!


--------------------
ВОР НЕ ВСЕГДА ВОР, А ДУРАК - ЭТО ПОЖИЗНЕННО!

Александр Дюпре /Ж. - П.Бельмондо/ "Игра в четыре руки"




Тело здесь, а душа далеко
Плюну я, в полупьяный конвой.
Тело здесь, для отчета ментам
А душа там, где мать родила.



Порой закрываю глаза и вспоминаю снова... как мама вела в первый класс, как папа нёс с выпускного.

Скрыть подпись
Top
gaidai82
№5 Отправлено: 20.09.2019 - 14:20


Смотрящий. Аксакал в законе.

Группа: Аксакалы
Регистрация: 21.01.2007
Сообщений: 16514
Обитает:
Последний раз был:
вчера в 18:47




Журнал "СПУТНИК КИНОЗРИТЕЛЯ" февраль 1987 год



Это сообщение отредактировал gaidai82 - 21.09.2019 - 13:43


--------------------
ВОР НЕ ВСЕГДА ВОР, А ДУРАК - ЭТО ПОЖИЗНЕННО!

Александр Дюпре /Ж. - П.Бельмондо/ "Игра в четыре руки"




Тело здесь, а душа далеко
Плюну я, в полупьяный конвой.
Тело здесь, для отчета ментам
А душа там, где мать родила.



Порой закрываю глаза и вспоминаю снова... как мама вела в первый класс, как папа нёс с выпускного.

Скрыть подпись
Top
SanSan48
№6 Отправлено: 20.09.2019 - 18:27


"Спартак" - ЧЕМПИОН!!!

Группа: Пользователи
Регистрация: 28.12.2009
Сообщений: 2169
Обитает:
Последний раз был:
вчера в 15:36




Цитата
gaidai82 @ 20.09.2019 - 14:20
Журнал "СПУТНИК КИНОЗРИТЕЛЯ" февраль 1987 год


К сожалению скрин не отображается. При попытке зайти на сайт выдаётся сообщение:
"RUS: Ошибка 404. Страница не найдена. После обработки все изображения хранятся не более 2 часов"

А нельзя залить на какой-то другой ресурс?


Это сообщение отредактировал SanSan48 - 20.09.2019 - 18:27


--------------------
"Спартак" - ЧЕМПИОН!!!

Скрыть подпись
Top
gaidai82
№7 Отправлено: 21.09.2019 - 13:44


Смотрящий. Аксакал в законе.

Группа: Аксакалы
Регистрация: 21.01.2007
Сообщений: 16514
Обитает:
Последний раз был:
вчера в 18:47




Цитата
( SanSan48 @ 20.09.2019 - 20:27)
Цитата
gaidai82 @ 20.09.2019 - 14:20
Журнал "СПУТНИК КИНОЗРИТЕЛЯ" февраль 1987 год


К сожалению скрин не отображается. При попытке зайти на сайт выдаётся сообщение:
"RUS: Ошибка 404. Страница не найдена. После обработки все изображения хранятся не более 2 часов"

А нельзя залить на какой-то другой ресурс?

Переделал!!!


--------------------
ВОР НЕ ВСЕГДА ВОР, А ДУРАК - ЭТО ПОЖИЗНЕННО!

Александр Дюпре /Ж. - П.Бельмондо/ "Игра в четыре руки"




Тело здесь, а душа далеко
Плюну я, в полупьяный конвой.
Тело здесь, для отчета ментам
А душа там, где мать родила.



Порой закрываю глаза и вспоминаю снова... как мама вела в первый класс, как папа нёс с выпускного.

Скрыть подпись
Top
SanSan48
№8 Отправлено: 21.09.2019 - 15:07


"Спартак" - ЧЕМПИОН!!!

Группа: Пользователи
Регистрация: 28.12.2009
Сообщений: 2169
Обитает:
Последний раз был:
вчера в 15:36




Цитата
gaidai82 @ 21.09.2019 - 13:44
Цитата
SanSan48 @ 20.09.2019 - 20:27

А нельзя залить на какой-то другой ресурс?

Переделал!!!

Спасибо!


Это сообщение отредактировал SanSan48 - 21.09.2019 - 15:07


--------------------
"Спартак" - ЧЕМПИОН!!!

Скрыть подпись
Top
1 человек просматривает эту тему (1 гость)
« Предыдущая тема | Отечественное кино | Следующая тема »


 



[Script Execution time: 0,0482]   [23 queries used]   [GZIP enabled]