Заходят многие - остаются лучшие!
Здравствуйте Гость ( Вход | Регистрация ) Выслать повторно письмо для активации
Вход
Ваше имя Пароль Забыли пароль?
Запомнить Вас?
Войти скрытым?



Новые сообщения раздела  

 

 Гангстеры дикой природы. Дикие собаки / Gangland Killers. Wild Dog Gangs (2014), Animal Family HD
bornik
  №1 Отправлено: 13.12.2017 - 16:40


Воспоминания - это богатства старости.

Группа: Модераторы
Регистрация: 18.08.2008
Сообщений: 1022
Обитает:
Последний раз был:
cегодня в 17:24




Гангстеры дикой природы. Дикие собаки / Gangland Killers. Wild Dog Gangs (2014)



Фильм 1 - Гангстеры дикой природы. Стада бегемотов
Фильм 2 - Гангстеры дикой природы. Слоны
Фильм 3 - Гангстеры дикой природы. Мангусты
Фильм 5 - Гангстеры дикой природы. Буйволы
Фильм 6 - Гангстеры дикой природы. Гиены

«Гангстеры дикой природы. Дикие собаки» - для многих животных, живущих на бескрайних просторах Африки, существует тонкая грань между жизнью и смертью. Множество хищников, засушливый сезон, недостаток воды и пищи делают жизнь обитателей саванны невыносимо трудной и смертельно опасной. Секрет выживания и процветания отдельных видов кроется в объединённых группах и коллективной охоте, будь то целеустремлённое стадо, сплочённая стая или безжалостная банда.

Название: Гангстеры дикой природы. Дикие собаки
Оригинальное название: Gangland Killers. Wild Dog Gangs
Год выпуска: 2014
Жанр: Документальный, природа, фауна, флора
Выпущено: ЮАР , AquaVision TV Productions
Продолжительность: 00:43:58
Субтитры: Русские (мои)

Режиссёр: Питер Ламберти / Peter Lamberti

Программа озвучена студией "АРК•ТВ"
Текст читает: Александр Гаврилин

Описание: Их не просто так зовут дикими собаками. Они беспощадны, безжалостны, жестоки. Но также, они любящие и заботливые. Они заботятся о раненых, молодых и старых особях. Но прежде всего - они одна команда. Стая. Банда. Дикие собаки держатся вместе, поскольку окружены самыми опасными хищниками Африки. Выживут ли они? Убьют ли они для пищи или же будут убиты сами?...








General
Complete name : C:\DVD documental fimls\Гангстеры дикой природы\4. Дикие собаки (2014).avi
Format : AVI
Format/Info : Audio Video Interleave
File size : 693 MiB
Duration : 43mn 58s
Overall bit rate : 2 204 Kbps
Writing application : VirtualDubMod 1.5.10.2 (build 2540/release)
Writing library : VirtualDubMod build 2540/release

Video
ID : 0
Format : MPEG-4 Visual
Format profile : Advanced Simple@L5
Format settings, BVOP : 2
Format settings, QPel : No
Format settings, GMC : No warppoints
Format settings, Matrix : Default (H.263)
Muxing mode : Packed bitstream
Codec ID : XVID
Codec ID/Hint : XviD
Duration : 43mn 58s
Bit rate : 2 002 Kbps
Width : 720 pixels
Height : 400 pixels
Display aspect ratio : 16:9
Frame rate : 25.000 fps
Color space : YUV
Chroma subsampling : 4:2:0
Bit depth : 8 bits
Scan type : Progressive
Compression mode : Lossy
Bits/(Pixel*Frame) : 0.278
Stream size : 630 MiB (91%)
Writing library : XviD 65

Audio
ID : 1
Format : MPEG Audio
Format version : Version 1
Format profile : Layer 3
Mode : Joint stereo
Mode extension : MS Stereo
Codec ID : 55
Codec ID/Hint : MP3
Duration : 43mn 58s
Bit rate mode : Constant
Bit rate : 192 Kbps
Channel(s) : 2 channels
Sampling rate : 48.0 KHz
Compression mode : Lossy
Stream size : 60.4 MiB (9%)
Alignment : Aligned on interleaves
Interleave, duration : 40 ms (1.00 video frame)
Interleave, preload duration : 504 ms
Writing library : LAME3.98r
Encoding settings : -m j -V 4 -q 3 -lowpass 18.6 -b 192


Записались на автоматическое включение в очередь: Alevtina, Nadejdaenergia, baziss, grival406, медикус

Если вы хотите, чтобы вас автоматически ставили в очередь на следующие фильмы о природе,
- сообщите об этом в теме последней раздачи.


=================================

Исходником послужил релиз HDTV, найденный на просторах инета!

Архивы созданы RAR-архиватором с добавлением 3% на восстановление и снабжены sfv-проверочником.
Просьба к первому скачавшему отписаться о сохранности архивов на источнике раздачи.


ПРИЯТНОГО ВСЕМ ПРОСМОТРА !!!




--------------------
Безоблачная старость – это миф,
Поскольку наша память – ширь морская,
И к ночи начинается прилив,
Со дна обломки прошлого таская.
Игорь Губерман

Скрыть подпись


Alevtina
№2 Отправлено: 13.12.2017 - 18:35


Время камни собирать...

Группа: Аксакалы
Регистрация: 12.02.2009
Сообщений: 5686
Обитает:
Последний раз был:
cегодня в 16:32




bornik, все ок! Спасибо большое! zdarov1.gif


--------------------

Прохожие, купите Доброту!
Лишь за улыбку! Разве ж это много!
Исполните заветную мечту…
И хоть одну из Заповедей Бога!
Снимите маски «гордых» и «крутых»
Купите, хоть немножечко, Терпенья.
И ощутите сердцем, хоть на миг,
Всю прелесть и восторг благодаренья!
Сегодня, АКЦИЯ на Совесть и Любовь!
Притормозите «хаммер» свой, иль «буммер»!
Купите! И волнуйте свою кровь!
От этого ещё никто не умер!


Скрыть подпись
Top
bornik
№3 Отправлено: 13.12.2017 - 19:00


Воспоминания - это богатства старости.

Группа: Модераторы
Регистрация: 18.08.2008
Сообщений: 1022
Обитает:
Последний раз был:
cегодня в 17:24




Цитата
( Alevtina @ 13.12.2017 - 18:35)
bornik, все ок! Спасибо большое! zdarov1.gif

И Вам, Alevtina, спасибо за добрую весть. happy_fly.gif


--------------------
Безоблачная старость – это миф,
Поскольку наша память – ширь морская,
И к ночи начинается прилив,
Со дна обломки прошлого таская.
Игорь Губерман

Скрыть подпись
Top
1 человек просматривает эту тему (1 гость)
« Предыдущая тема | Мир вокруг нас | Следующая тема »


 



[Script Execution time: 0,0321]   [22 queries used]   [GZIP enabled]