Здравствуйте Гость ( Вход | Регистрация ) Выслать повторно письмо для активации
Вход
Ваше имя Пароль Забыли пароль?
Запомнить Вас?
Войти скрытым?



 Правила раздела Новые сообщения раздела  


 

 Братья ветра / Brothers of the Wind (2015), Жанр: Драма, приключения, семейный
Alevtina
  №1 Отправлено: 31.12.2017 - 17:37


Время камни собирать...

Группа: Аксакалы
Регистрация: 12.02.2009
Сообщений: 5626
Обитает:
Последний раз был:
вчера в 21:27




Братья ветра / Brothers of the Wind


Братья ветра
Оригинальное название: Brothers of the Wind

Жанр: Драма, приключения, семейный
Год выхода: 2015
Страна: Австрия
Режиссер: Херардо Оливарес, Отмар Пенкер
В ролях: Жан Рено, Мануэль Камачо, Тобиас Моретти, Эва Куэн
Продолжительность: 98 мин
Перевод: Проф.Многоголосый (Studio Green Рай, перевод - Станислав Бельков)

Описание:

Эта трогательная драма рассказывает о дружбе человека и дикой птицы, выручившей каждого из них в трудную минуту. Маленький Лукас живет со своим суровым отцом, отношения с которым у мальчишки сложились не самые приятные. Конечно же, это мучительно для парня, нуждающегося в родственной душе. К счастью, он все же находит ее, пусть и неожиданным образом. Лукас подбирает и выхаживает маленького орленка, вытолкнутого из гнезда. Но может ли такая дружба продлиться долго?

Фильм удивляет своей визуальной красотой, умело показывая потрясающие пейзажи мест, в которых происходит действие, и позволяет зрителю как следует отдохнуть душой.

Еще описание фильма под другим ракурсом видения:

Альпы, 60 годы прошлого столетия. Двенадцатилетний Лукас проживает со своим отцом на небольшом хуторе. Однажды мальчик находит птенца орла, выпавшего из гнезда, и тайно приносит его домой. Однако, со временем отношения Лукаса с дикой птицей превращаются в необыкновенную дружбу и приводят к увлекательным приключениям. Лукасу большую поддержку оказывает таинственный Данзер, который как никто знает привычки диких животных и открывает мальчику их необычный мир…

Кинопоиск =7,157 ( https://www.kinopoisk.ru/film/bratya-vetra-2015-846041/)

IMDB=6.8 ( http://www.imdb.com/title/tt3532278/?ref_=fn_al_tt_1 )

Медиа-инфо:

Format : AVI
Format/Info : Audio Video Interleave
File size : 1.46 GiB
Duration : 1h 38mn
Overall bit rate : 2 134 Kbps
Writing application : VirtualDubMod 1.5.10.3 | www.virtualdub-fr.org || (build 2550/release)
Writing library : VirtualDubMod build 2550/release

Video
ID : 0
Format : MPEG-4 Visual
Format profile : Advanced Simple@L5
Format settings, BVOP : Yes
Format settings, QPel : No
Format settings, GMC : No warppoints
Format settings, Matrix : Default (MPEG)
Codec ID : XVID
Codec ID/Hint : XviD
Duration : 1h 38mn
Bit rate : 1 677 Kbps
Width : 720 pixels
Height : 384 pixels
Display aspect ratio : 1.875
Frame rate : 23.976 fps
Color space : YUV
Chroma subsampling : 4:2:0
Bit depth : 8 bits
Scan type : Progressive
Bits/(Pixel*Frame) : 0.253
Stream size : 1.15 GiB (79%)
Writing library : XviD 1.2.1 (UTC 2008-12-04)

Audio
ID : 1
Format : AC-3
Format/Info : Audio Coding 3
Mode extension : CM (complete main)
Codec ID : 2000
Duration : 1h 38mn
Bit rate mode : Constant
Bit rate : 448 Kbps
Channel(s) : 6 channels
Channel positions : Front: L C R, Side: L R, LFE
Sampling rate : 48.0 KHz
Stream size : 314 MiB (21%)
Alignment : Split accross interleaves
Interleave, duration : 42 ms (1.00 video frame)
Interleave, preload duration : 500 ms


Скриншоты:








Это сообщение отредактировал Alevtina - 31.12.2017 - 17:40


--------------------

Прохожие, купите Доброту!
Лишь за улыбку! Разве ж это много!
Исполните заветную мечту…
И хоть одну из Заповедей Бога!
Снимите маски «гордых» и «крутых»
Купите, хоть немножечко, Терпенья.
И ощутите сердцем, хоть на миг,
Всю прелесть и восторг благодаренья!
Сегодня, АКЦИЯ на Совесть и Любовь!
Притормозите «хаммер» свой, иль «буммер»!
Купите! И волнуйте свою кровь!
От этого ещё никто не умер!


Скрыть подпись


VILM
№2 Отправлено: 31.12.2017 - 19:24


Завсегдатай

Группа: Потребители
Регистрация: 10.02.2009
Сообщений: 329
Обитает:
Последний раз был:
вчера в 18:38




Архивы в порядке.
Спасибо и с Новым Годом!
Top
Alevtina
№3 Отправлено: 31.12.2017 - 19:27


Время камни собирать...

Группа: Аксакалы
Регистрация: 12.02.2009
Сообщений: 5626
Обитает:
Последний раз был:
вчера в 21:27




VILM, благодарю за весть и взаимно поздравляю с Новым Годом! Всех благ Вам! s_elkoj.gif


--------------------

Прохожие, купите Доброту!
Лишь за улыбку! Разве ж это много!
Исполните заветную мечту…
И хоть одну из Заповедей Бога!
Снимите маски «гордых» и «крутых»
Купите, хоть немножечко, Терпенья.
И ощутите сердцем, хоть на миг,
Всю прелесть и восторг благодаренья!
Сегодня, АКЦИЯ на Совесть и Любовь!
Притормозите «хаммер» свой, иль «буммер»!
Купите! И волнуйте свою кровь!
От этого ещё никто не умер!


Скрыть подпись
Top
1 человек просматривает эту тему (1 гость)
« Предыдущая тема | Зарубежные фильмы | Следующая тема »


 



[Script Execution time: 0,0262]   [22 queries used]   [GZIP enabled]