Заходят многие - остаются лучшие!
Здравствуйте Гость ( Вход | Регистрация ) Выслать повторно письмо для активации
Вход
Ваше имя Пароль Забыли пароль?
Запомнить Вас?
Войти скрытым?



Новые сообщения раздела  

 

 Орёл - царь неба / National Geographic. The Eagles (2014), National Geographic
bornik
  №1 Отправлено: 14.04.2017 - 02:14


Воспоминания - это богатства старости.

Группа: Модераторы
Регистрация: 18.08.2008
Сообщений: 915
Обитает:
Последний раз был:
вчера в 18:08




Орёл - царь неба / National Geographic. The Eagles (2014)



«Орёл - царь неба» - типичный хищник с широким диапазоном варьирования морфологических признаков и особенностей образа жизни. Размеры значительно разнообразны.
Голосовые мышцы хорошо развиты. Могут издавать разнообразные звуки, обычно высокого тембра, хорошо слышимые на большом расстоянии.

Название: Орёл - царь неба
Оригинальное название: The Eagles
Год выпуска: 2014
Жанр: Документальный, природа, фауна, флора
Выпущено: США, National Geographic Channels, Германия, Doclights GmbH / NDR Naturfim
Продолжительность: 00:43:56
Субтитры: Русские (мои)

Режиссёр: Фил Коулс / Phil Coles

Программа озвучена студией "Велес"
Текст читает: Олег Белов

Описание: Орлы отличаются острым зрением, мощными крыльями, острыми когтями и крючкообразным клювом. Эти величественные хищники о которых тысячелетиями слагали мифы и легенды. Но и на вершине пищевой цепи они борются за выживание изо всех сил стараясь вырастить потомство. Сильные, многообразные, ловкие. Это невероятная история о завоеваниях одной особи. Чего стоит стать царём неба? Узнайте, как орлята, становятся хищными, гордыми, сильными и взрослыми птицами.







General
Complete name : C:\DVD documental fimls\Орёл\Орёл - царь неба (2010).avi
Format : AVI
Format/Info : Audio Video Interleave
File size : 693 MiB
Duration : 43mn 56s
Overall bit rate : 2 205 Kbps
Writing application : VirtualDubMod 1.5.10.2 (build 2540/release)
Writing library : VirtualDubMod build 2540/release

Video
ID : 0
Format : MPEG-4 Visual
Format profile : Advanced Simple@L5
Format settings, BVOP : 2
Format settings, QPel : No
Format settings, GMC : No warppoints
Format settings, Matrix : Default (H.263)
Muxing mode : Packed bitstream
Codec ID : XVID
Codec ID/Hint : XviD
Duration : 43mn 56s
Bit rate : 2 003 Kbps
Width : 720 pixels
Height : 400 pixels
Display aspect ratio : 16:9
Frame rate : 25.000 fps
Color space : YUV
Chroma subsampling : 4:2:0
Bit depth : 8 bits
Scan type : Progressive
Compression mode : Lossy
Bits/(Pixel*Frame) : 0.278
Stream size : 629 MiB (91%)
Writing library : XviD 65

Audio
ID : 1
Format : MPEG Audio
Format version : Version 1
Format profile : Layer 3
Mode : Joint stereo
Codec ID : 55
Codec ID/Hint : MP3
Duration : 43mn 55s
Bit rate mode : Constant
Bit rate : 192 Kbps
Channel(s) : 2 channels
Sampling rate : 48.0 KHz
Compression mode : Lossy
Stream size : 60.3 MiB (9%)
Alignment : Aligned on interleaves
Interleave, duration : 40 ms (1.00 video frame)
Interleave, preload duration : 504 ms


=================================

Исходником послужил релиз HDTV, найденный на просторах инета!

Архивы созданы RAR-архиватором с добавлением 3% на восстановление и снабжены sfv-проверочником.
Просьба к первому скачавшему отписаться о сохранности архивов на источнике раздачи.

Раздача рассчитана на месяц.

ПРИЯТНОГО ВСЕМ ПРОСМОТРА !!!




--------------------
Безоблачная старость – это миф,
Поскольку наша память – ширь морская,
И к ночи начинается прилив,
Со дна обломки прошлого таская.
Игорь Губерман

Скрыть подпись


dlicht
№2 Отправлено: 14.04.2017 - 05:36


Прохожий

Группа: Потребители
Регистрация: 10.11.2013
Сообщений: 13
Последний раз был:
вчера в 10:56




Архивы в порядке, спасибо!
Top
bornik
№3 Отправлено: 14.04.2017 - 16:24


Воспоминания - это богатства старости.

Группа: Модераторы
Регистрация: 18.08.2008
Сообщений: 915
Обитает:
Последний раз был:
вчера в 18:08




Цитата
( dlicht @ 14.04.2017 - 05:36)
Архивы в порядке, спасибо!

И Вам, dlicht, спасибо за добрую весть. happy_fly.gif


--------------------
Безоблачная старость – это миф,
Поскольку наша память – ширь морская,
И к ночи начинается прилив,
Со дна обломки прошлого таская.
Игорь Губерман

Скрыть подпись
Top
grival406
№4 Отправлено: 16.04.2017 - 17:03


Старожил

Группа: Потребители
Регистрация: 3.03.2016
Сообщений: 923
Обитает:
Последний раз был:
позавчера в 19:54




БОЛЬШОЕ СПАСИБО!


--------------------
Я знаю только одного тирана, и это тихий голос совести.
Махатма Ганди

Скрыть подпись
Top
1 человек просматривает эту тему (1 гость)
« Предыдущая тема | Мир вокруг нас | Следующая тема »


 



[Script Execution time: 0,0282]   [22 queries used]   [GZIP enabled]