Заходят многие - остаются лучшие!
Здравствуйте Гость ( Вход | Регистрация ) Выслать повторно письмо для активации
Вход
Ваше имя Пароль Забыли пароль?
Запомнить Вас?
Войти скрытым?



 Правила раздела Новые сообщения раздела  


 

 Пола / Paula (1952), Режиссер Рудольф Мате, в гл.ролях Лоретта Янг, Кент Смит
surzhoks
  №1 Отправлено: 12.01.2019 - 12:34


Живёт здесь

Группа: Аксакалы
Регистрация: 17.03.2008
Сообщений: 1138
Обитает:
Последний раз был:
18.05.2019 - 13:43




Пола / Paula


Страна: США
Студия: Columbia Pictures Corporation
Жанр: драма
Год выпуска: 1952
Продолжительность: 01:19:51
Режиссер: Рудольф Мате / Rudolph Maté
Композитор: Джордж Данинг / George Duning

В ролях:
Лоретта Янг / Loretta Young ... Paula Rogers
Кент Смит / Kent Smith ... John Rogers
Александр Нокс / Alexander Knox ... Dr. Clifford Frazer
Томми Реттиг / Tommy Rettig ... David Larson
Отто Хулетт / Otto Hulett ... Lieutenant Dargen
Уилл Райт / Will Wright ... Raymond Bascom
Рэймонд Гринлиф / Raymond Greenleaf ... President Russell
Иза Эндаун / Isa Ashdown ... Little Girl, в титрах не указана
Гертруда Эстор / Gertrude Astor ... Mrs. Brown, в титрах не указана

Описание: Обезумевшая после второго выкидыша и окончательного вердикта, что она никогда не сможет иметь детей, управляя автомобилем, Пола Роджерс случайно сбивает мальчика. Испугавшаяся Пола не следует за ребенком в больницу, а спешит на чествование своего мужа. Она пытается рассказать мужу об этом инциденте, но не может найти подходящий момент. Позже, преодолевая угрызения совести, Пола предлагает свою помощь больнице, где лечится её жертва. Она узнаёт, что ребенок - сирота с серьёзными речевыми проблемами. Врач признает, что Пола может быть полезной, и спрашивает, станет ли она логопедом и опекуном мальчика. Пола находит смысл и цель в своей жизни, организуя для маленького мальчика курс интенсивной терапии, необходимой для восстановления его способности говорить...

Доп. информация:
Огромное спасибо всем причастным к релизу:
рип - Магда,
перевод и озвучивание фильма - Алексей Яковлев,
работа со звуком и реавторинг DVD- AlekceyR76,
финансовая поддержка перевода и озвучивания фильма:
Магда, Lafajet, jasenka, yanaelisa, Ugo927, Лямдазонд, борюська, surzhoks, leoder, елена 22, cementit, voostorg, HippopotamusIV, mumzik69, GalaUkr

Архивы созданы RAR-архиватором с добавлением 3% на восстановление и снабжены sfv-проверочником.
Просьба к первому скачавшему отписаться о сохранности архивов на источнике раздачи.

Раздача рассчитана на 2 месяца. На просмотр линка и скачивание 5 дней!
В случае если вы встали в очередь, а затем отказываетесь от скачивания без объяснения причин, возможен отказ в последующих моих раздачах.



Полное имя :Paula.avi
Формат : AVI
Формат/Информация : Audio Video Interleave
Размер файла : 1,37 Гбайт
Продолжительность : 1 ч. 19 м.
Общий поток : 2457 Кбит/сек
Программа кодирования : VirtualDubMod 1.5.10.3 | www.virtualdub-fr.org || (build 2550/release)
Библиотека кодирования : VirtualDubMod build 2550/release

Видео
Идентификатор : 0
Формат : MPEG-4 Visual
Профиль формата : Advanced Simple@L5
Параметр BVOP формата : 2
Параметр QPel формата : Нет
Параметр GMC формата : Без точки перехода
Параметр матрицы формата : Default (H.263)
Идентификатор кодека : DX50
Идентификатор кодека/Подсказка : DivX 5
Продолжительность : 1 ч. 19 м.
Битрейт : 2059 Кбит/сек
Ширина : 640 пикселей
Высота : 480 пикселей
Соотношение сторон : 4:3
Частота кадров : 23,976 кадра/сек
Цветовое пространство : YUV
Субдискретизация насыщенности : 4:2:0
Битовая глубина : 8 бит
Тип развёртки : Прогрессивная
Метод сжатия : С потерями
Бит/(Пиксели*Кадры) : 0.280
Размер потока : 1,15 Гбайт (84%)
Библиотека кодирования : XviD 73

Аудио #1
Идентификатор : 1
Формат : AC-3
Формат/Информация : Audio Coding 3
Расширение режима : CM (complete main)
Параметр Endianness формата : Big
Идентификатор кодека : 2000
Продолжительность : 1 ч. 19 м.
Вид битрейта : Постоянный
Битрейт : 192 Кбит/сек
Каналы : 2 канала
Расположение каналов : Front: L R
Частота : 48,0 КГц
Битовая глубина : 16 бит
Метод сжатия : С потерями
Размер потока : 110 Мбайт (8%)
Выравнивание : Разделение по промежуткам
Продолжительность промежутка : 42 мс. (1,00 видеокадр)
Время предзагрузки промежутка : 500 мс.

Аудио #2
Идентификатор : 2
Формат : AC-3
Формат/Информация : Audio Coding 3
Расширение режима : CM (complete main)
Параметр Endianness формата : Big
Идентификатор кодека : 2000
Продолжительность : 1 ч. 19 м.
Вид битрейта : Постоянный
Битрейт : 192 Кбит/сек
Каналы : 2 канала
Расположение каналов : Front: L R
Частота : 48,0 КГц
Битовая глубина : 16 бит
Метод сжатия : С потерями
Размер потока : 110 Мбайт (8%)
Выравнивание : Разделение по промежуткам
Продолжительность промежутка : 42 мс. (1,00 видеокадр)
Время предзагрузки промежутка : 500 мс.




vjub58
№2 Отправлено: 12.01.2019 - 14:48


Практикующий эсквайр

Группа: Аксакалы
Регистрация: 6.12.2005
Сообщений: 5053
Обитает:
Последний раз был:
cегодня в 00:00




Спасибо, все ОК. pozdrav_buket.gif
Top
1 человек просматривает эту тему (1 гость)
« Предыдущая тема | Зарубежные фильмы | Следующая тема »


 



[Script Execution time: 0,0281]   [22 queries used]   [GZIP enabled]