Здравствуйте Гость ( Вход | Регистрация ) Выслать повторно письмо для активации
Вход
Ваше имя Пароль Забыли пароль?
Запомнить Вас?
Войти скрытым?



 Правила раздела Новые сообщения раздела  


 

 Сказание о Рустаме (2 части) (1971), Эпос,экранизация;Реж-Б.Кимягаров;Роли-Б.Ватаев,О.Коберидзе,С.Норбаева
SanSan48
  №1 Отправлено: 26.09.2017 - 15:14


"Спартак" - ЧЕМПИОН!!!

Группа: Пользователи
Регистрация: 28.12.2009
Сообщений: 1866
Обитает:
Последний раз был:
cегодня в 19:11




Сказание о Рустаме (2 части) (1971)



Предыдущие раздачи:
23.10.2007 (VHSrip)
01.06.2008 (VHSrip) (Перераздача)

Жанр: Эпос, экранизация
Выпущено: СССР, Таджикфильм
Год выпуска: 1971
Премьера (СССР): 17 апреля 1972
Сценарист: Григорий Колтунов
Операторы: Заур Дахте, Давлат Худоназаров
Композитор: А.Меликов
Художники: Ш.Абдусаламов, А.Бойм
Монтажёр: Е.Баженова

Режиссёры: Борис (Бенсион) Кимягаров

В ролях:
Бимболат (Бибо) Ватаев … Рустам
Отар Коберидзе … Кавус
Махмуджан Вахидов … Тулад, див
Светлана Норбаева … Тахмина
Мухаммеджан Касымов … Заль
Нозукмо Шомансурова … Рудабе
Гиви Тохадзе … Тус
Тариэль Касимов … Гив
Гиви Джаджанидзе … Гударз
Герман Нурханов … Тувалд
Гия Кобахидзе … Гургин
Н.Санакоев … Бахрам
Алим Ходжаев … поэт
Ходжакули Рахматуллаев … шах (в титрах ошибочно – Калаф)
Марьям Исаева … служанка
Д.Анваров … мальчик-поводырь

Описание: Первая часть кинотрилогии по мотивам поэмы Абдулькасима Фирдоуси «Шах-Наме».
Эпическое сказание о подвигах легендарного древнеиранского богатыря Рустама — смелого воина, готового всегда придти на помощь тому, кто в ней нуждается. На экране герои эпоса: певец, говорящий правду жестокому властелину, и дэв, постоянно меняющий свои обличья....

Дополнительная информация: Релиз:

Автор рипа: pmv

Большое спасибо за:
- исходный DVD5 и разрешение на раздачу - Доброму человеку

* Представленный в раздаче фильм из собрания ГФФ, выпущен в подарочном исполнении и является раритетом.

* Фильм раздаётся исключительно в ознакомительных целях и коммерческому распространению не подлежит. Поэтому ПРОСЬБА к скачавшим фильм НЕ РАЗДАВАТЬ данный рип на каких-либо сторонних ресурсах.

IMDb = 7,3/10 (15) - http://www.imdb.com/title/tt2262101/
Кинопоиск = 8.022 (90) - https://www.kinopoisk.ru/film/skazanie-o-ru...me-1971-503263/

ВНИМАНИЕ!!! РИП ФОРМАТА mkv (кодек H.264) ВОСПРОИЗВОДИТСЯ НЕ НА ВСЕХ БЫТОВЫХ ВИДЕОПЛЕЕРАХ!!!

Параметры файла:
Название: Сказание о Рустаме (1971).mkv
Качество видео: DVDrip
Формат видео: MKV
Размер: 1,35 ГБ (1 457 400 261 байт)
Продолжительность: 02:19:26
Видео: AVC (H264), 688@725x328 (2.21:1), 25 fps, 1200 kb/s, 0.213 Bits/Pixel
Аудио: AC3, 48 KHz, stereo (2 ch), 192 kbps



General
Unique ID : 204325219217262572726160255045898295676 (0x99B79B164266EAB1AD450961CD53597C)
Complete name : D:\torrents\Сказание о Рустаме (1971).mkv
Format : Matroska
Format version : Version 4 / Version 2
File size : 1.36 GiB
Duration : 2 h 19 min
Overall bit rate : 1 394 kb/s
Encoded date : UTC 2017-09-25 14:26:17
Writing application : mkvmerge v15.0.0 ('Duel with the Devil') 64-bit
Writing library : libebml v1.3.5 + libmatroska v1.4.5

Video
ID : 1
Format : AVC
Format/Info : Advanced Video Codec
Format profile : High@L4.1
Format settings, CABAC : Yes
Format settings, ReFrames : 16 frames
Codec ID : V_MPEG4/ISO/AVC
Duration : 2 h 19 min
Bit rate : 1 200 kb/s
Width : 688 pixels
Height : 328 pixels
Display aspect ratio : 2.2:1
Original display aspect ratio : 2.098
Frame rate mode : Constant
Frame rate : 25.000 FPS
Color space : YUV
Chroma subsampling : 4:2:0
Bit depth : 8 bits
Scan type : Progressive
Bits/(Pixel*Frame) : 0.213
Stream size : 1.17 GiB (86%)
Writing library : x264 core 130 r2273 b3065e6
Encoding settings : cabac=1 / ref=16 / deblock=1:0:0 / analyse=0x3:0x133 / me=umh / subme=10 / psy=1 / psy_rd=1.00:0.00 / mixed_ref=1 / me_range=24 / chroma_me=1 / trellis=2 / 8x8dct=1 / cqm=0 / deadzone=21,11 / fast_pskip=1 / chroma_qp_offset=-2 / threads=48 / lookahead_threads=2 / sliced_threads=0 / nr=0 / decimate=1 / interlaced=0 / bluray_compat=0 / constrained_intra=0 / bframes=8 / b_pyramid=2 / b_adapt=2 / b_bias=0 / direct=3 / weightb=1 / open_gop=0 / weightp=2 / keyint=250 / keyint_min=25 / scenecut=40 / intra_refresh=0 / rc_lookahead=60 / rc=2pass / mbtree=1 / bitrate=1200 / ratetol=1.0 / qcomp=0.60 / qpmin=0 / qpmax=69 / qpstep=4 / cplxblur=20.0 / qblur=0.5 / ip_ratio=1.40 / aq=1:1.00
Language : Russian
Default : Yes
Forced : No

Audio
ID : 2
Format : AC-3
Format/Info : Audio Coding 3
Mode extension : CM (complete main)
Format settings, Endianness : Big
Codec ID : A_AC3
Duration : 2 h 19 min
Bit rate mode : Constant
Bit rate : 192 kb/s
Channel(s) : 2 channels
Channel positions : Front: L R
Sampling rate : 48.0 kHz
Frame rate : 31.250 FPS (1536 spf)
Bit depth : 16 bits
Compression mode : Lossy
Stream size : 191 MiB (14%)
Language : Russian
Default : Yes
Forced : No








МОИ РАЗДАЧИ НА ФЕНИКСе: ЗДЕСЬ




Это сообщение отредактировал SanSan48 - 26.09.2017 - 15:17


--------------------
"Спартак" - ЧЕМПИОН!!!

Скрыть подпись
astr76
№2 Отправлено: 26.09.2017 - 16:21


Новичок

Группа: Потребители
Регистрация: 16.08.2008
Сообщений: 56
Обитает:
На форуме с:
cегодня в 23:35




Спасибо за фильм детства, все распаковалось.
Top
SanSan48
№3 Отправлено: 26.09.2017 - 16:28


"Спартак" - ЧЕМПИОН!!!

Группа: Пользователи
Регистрация: 28.12.2009
Сообщений: 1866
Обитает:
Последний раз был:
cегодня в 19:11




Цитата
( astr76 @ 26.09.2017 - 16:21)
Спасибо за фильм детства, все распаковалось.

astr76, Благодарю за сообщение!

Приятного всем просмотра!


--------------------
"Спартак" - ЧЕМПИОН!!!

Скрыть подпись
Top
Ushkuynik
№4 Отправлено: 28.09.2017 - 00:28


Посетитель

Группа: Потребители
Регистрация: 5.06.2015
Сообщений: 245
Обитает:
Последний раз был:
cегодня в 06:18




Архивы в порядке.
Top
gaidai82
№5 Отправлено: 30.09.2017 - 12:39


Смотрящий. Аксакал в законе.

Группа: Аксакалы
Регистрация: 21.01.2007
Сообщений: 16225
Обитает:
Последний раз был:
cегодня в 17:34







Это сообщение отредактировал gaidai82 - 30.09.2017 - 12:40


--------------------
ВОР НЕ ВСЕГДА ВОР, А ДУРАК - ЭТО ПОЖИЗНЕННО!

Александр Дюпре /Ж. - П.Бельмондо/ "Игра в четыре руки"




Тело здесь, а душа далеко
Плюну я, в полупьяный конвой.
Тело здесь, для отчета ментам
А душа там, где мать родила.



Порой закрываю глаза и вспоминаю снова... как мама вела в первый класс, как папа нёс с выпускного.

Скрыть подпись
Top
gaidai82
№6 Отправлено: 30.09.2017 - 12:41


Смотрящий. Аксакал в законе.

Группа: Аксакалы
Регистрация: 21.01.2007
Сообщений: 16225
Обитает:
Последний раз был:
cегодня в 17:34






--------------------
ВОР НЕ ВСЕГДА ВОР, А ДУРАК - ЭТО ПОЖИЗНЕННО!

Александр Дюпре /Ж. - П.Бельмондо/ "Игра в четыре руки"




Тело здесь, а душа далеко
Плюну я, в полупьяный конвой.
Тело здесь, для отчета ментам
А душа там, где мать родила.



Порой закрываю глаза и вспоминаю снова... как мама вела в первый класс, как папа нёс с выпускного.

Скрыть подпись
Top
Aleksjei
№7 Отправлено: 30.09.2017 - 12:44


Старожил

Группа: Форумчане
Регистрация: 20.01.2009
Сообщений: 610
Обитает:
Последний раз был:
cегодня в 16:13




Ух ты! Какие красивые плакаты.
Помню, помню этот фильм в прокате. Был широкоформатным.
Смоттрел из будки механика раз пять, шесть.
Top
gaidai82
№8 Отправлено: 30.09.2017 - 13:07


Смотрящий. Аксакал в законе.

Группа: Аксакалы
Регистрация: 21.01.2007
Сообщений: 16225
Обитает:
Последний раз был:
cегодня в 17:34




Aleksjei, точно - ШИРОКОФОРМАТНЫЙ.


--------------------
ВОР НЕ ВСЕГДА ВОР, А ДУРАК - ЭТО ПОЖИЗНЕННО!

Александр Дюпре /Ж. - П.Бельмондо/ "Игра в четыре руки"




Тело здесь, а душа далеко
Плюну я, в полупьяный конвой.
Тело здесь, для отчета ментам
А душа там, где мать родила.



Порой закрываю глаза и вспоминаю снова... как мама вела в первый класс, как папа нёс с выпускного.

Скрыть подпись
Top
1 человек просматривает эту тему (1 гость)
« Предыдущая тема | Отечественное кино | Следующая тема »


 



[Script Execution time: 0,0326]   [23 queries used]   [GZIP enabled]