Заходят многие - остаются лучшие!
Здравствуйте Гость ( Вход | Регистрация ) Выслать повторно письмо для активации
Вход
Ваше имя Пароль Забыли пароль?
Запомнить Вас?
Войти скрытым?



 Правила раздела Новые сообщения раздела  


 

 Привидения в замке Шпессарт / Das Spukschloß im Spessart (1960), Комедия,мюзикл,фэнтези;Реж-К.Хоффманн;Роли-Л.Пульвер,Х.Бауманн,Х.Видер
SanSan48
  №1 Отправлено: 9.08.2017 - 13:23


"Спартак" - ЧЕМПИОН!!!

Группа: Пользователи
Регистрация: 28.12.2009
Сообщений: 1823
Обитает:
Последний раз был:
вчера в 15:39




Привидения в замке Шпессарт / Das Spukschloß im Spessart (1960)



Предыдущие раздачи:
06.03.2015 (DVDRip)
02.02.2007 (VHS)
20.09.2008 (Архив)
15.09.2008 (BETACAM)

Жанр: Комедия, мюзикл, фэнтези
Выпущено: Германия (ФРГ), Georg Witt-Film («Георг Витт-фильм», Мюнхен, ФРГ)
Год выпуска: 1960
Премьера (мир): 15 декабря 1960 (Западный Берлин)
Премьера (СССР): прокат 1962, Июль 1961 (СССР, Московский международный кинофестиваль)
Сценаристы: Гюнтер Нойманн / Günter Neumann, Хайнц Паук / Heinz Pauck
Оператор: Гюнтер Андерс / Günther Anders,
Композитор: Фредерик Холландер / Frederick Hollander
Художники: Хейн Хекрот / Hein Heckroth, Вилли Шатц / Willy Schatz, Элизабет Урбанчич / Elisabeth Urbancic
Монтажёр: Хильва фон Боро / Hilwa von Boro

Режиссер: Курт Хоффманн / Kurt Hoffmann

В ролях:
Лизелотта Пульвер / Liselotte Pulver ... Шарлотта / Charlotte - дублирует Татьяна Шмыга
Хайнц Бауманн / Heinz Baumann ... Мартин Хартог / Martin Hartog - Владимир Трошин
Ханна Видер / Hanne Wieder ... Катрин / Katrin - Лариса Пашкова
Эльза Вагнер / Elsa Wagner ... Тётя Ивонна / Tante Yvonne - Елена Понсова
Херберт Хюбнер / Herbert Hübner ... Хартог / Hartog - Сергей Курилов
Эрнст Вальдов / Ernst Waldow ... Дядя Эрнст Аугуст Теодор / Onkel Ernst August Teodor - Аркадий Вовси
Хуберт фон Майеринк / Hubert von Meyerinck ... фон Теккель / von Teckel - Владимир Осенев
Ханс Кларин / Hans Clarin ... Принц Калака / Prinz Kalaka - Виктор Сергачев
Пауль Эссер / Paul Esser ... Тони / Toni - Алексей Полевой
Ганс Рихтер / Hans Richter ... Йокель / Jockel - Александр Баранов
Курт Боис / Curt Boisт ... Хуго / Hugo - Василий Алчевский
Георг Томалла / Georg Thomalla ... "Дялюшка" Макс / Onkel Max - Зиновий Гердт
Эрнст Бартхельс / Ernst Barthels ... Секретарь принца Калака - Григорий Шпигель (в титрах не указан)

Описание:
Во времена мрачного средневековья жители одного маленького прусского городка поймали шайку разбойников, бесчинствовавших в окрестных лесах и приговорили их к смерти, замуровав в подземелье. Формально приговор звучал так:
«Вам, ворам презренным,
Сошедшим с честного пути,
Пока не пали эти стены
Из подземелья не уйти.»

Спустя несколько столетий, уже в середине 20-го века при прокладке шоссе строители случайно разрушают стены подвала, в котором были замурованы разбойники и находят несколько скелетов. Это Хуго, Тони, "дядюшка" Макс, Йогель, Катрин и их собака. Поскольку условия приговора формально были выполнены и стены подземелья были разрушены, то разбойники выходят на свободу, но... теперь они - привидения...

Дополнительная информация: Релиз:

Исходник найден в сети.

Автор рипа: pmv

* Эта уморительная постановка более чем за полвека так и не утратила своей свежести и обаяния. А творческой группой киностудии "Союзмультфильм" во главе с Георгием Калитиевским была проделана поистине титаническая работа по переводу этого фильма и песен из него - ведь и песни в этом фильме, все до единой, звучат на русском языке! Вследствии чего советские кинематографисты дублировавшие этот фильм на русский язык сделали его и для нас, в прошлом советских зрителей, действительно Нашей Народной Комедией.

Награды и номинации:
II международный кинофестиваль в Москве, июль 1961 года
Победитель (1):
- СЕРЕБРЯННЫЙ ПРИЗ - Лучший комедийный фильм (Курт Хоффманн)
Номинации (1):
- Главный приз (Курт Хоффман)


Фильм дублирован на киностудии "Союзмультфильм" в 1961 году.

Режиссёр дубляжа: Георгий Калитиевский
Звукооператор: Борис Фильчиков
Роли дублировали: Татьяна Шмыга, Владимир Трошин, Лариса Пашкова, Елена Понсова, Аркадий Вовси, Владимир Осенев, Виктор Сергачёв, Сергей Курилов, Алексей Полевой, Анатолий Баранов, Зиновий Гердт, Василий Алчевский, Григорий Шпигель

IMDb = 6,2/10 (389) - http://www.imdb.com/title/tt0054337/
Кинопоиск = 7.036 (243) - http://www.kinopoisk.ru/film/68809/

Параметры файла:
Название файла: Das Spukschloss im Spessart (1960, HDrip, rus dub+ger).mkv
Качество видео: BDRip
Формат видео: MKV
Размер: 1,45 ГБ (1 559 780 344 bytes )
Продолжительность: 01:37:22
Видео: AVC (H264), 1072x640 (1.675:1), 25 fps, 1750 kbps, 0.102 Bits/Pixel
Аудио #1: AC3, 48 kHz, stereo (2 ch), 192 kbps - советский дубляж
Аудио #2: AC3, 48 kHz, stereo (2 ch), 192 kbps - немецкий



General
Unique ID : 215523369428112512638449604880869553229 (0xA2244A84DA7E9609A0C2C108C8BAF44D)
Complete name : D:\torrents\Das Spukschloss im Spessart (1960, HDrip, rus dub+ger).mkv
Format : Matroska
Format version : Version 4 / Version 2
File size : 1.45 GiB
Duration : 1 h 37 min
Overall bit rate : 2 136 kb/s
Encoded date : UTC 2017-08-08 05:46:54
Writing application : mkvmerge v14.0.0 ('Flow') 64bit
Writing library : libebml v1.3.4 + libmatroska v1.4.5

Video
ID : 1
Format : AVC
Format/Info : Advanced Video Codec
Format profile : High@L4.1
Format settings, CABAC : Yes
Format settings, ReFrames : 12 frames
Codec ID : V_MPEG4/ISO/AVC
Duration : 1 h 37 min
Bit rate : 1 750 kb/s
Width : 1 072 pixels
Height : 640 pixels
Display aspect ratio : 5:3
Frame rate mode : Constant
Frame rate : 25.000 FPS
Color space : YUV
Chroma subsampling : 4:2:0
Bit depth : 8 bits
Scan type : Progressive
Bits/(Pixel*Frame) : 0.102
Stream size : 1.19 GiB (82%)
Writing library : x264 core 146 r2538 121396c
Encoding settings : cabac=1 / ref=12 / deblock=1:0:0 / analyse=0x3:0x133 / me=umh / subme=10 / psy=1 / psy_rd=1.00:0.00 / mixed_ref=1 / me_range=24 / chroma_me=1 / trellis=2 / 8x8dct=1 / cqm=0 / deadzone=21,11 / fast_pskip=1 / chroma_qp_offset=-2 / threads=48 / lookahead_threads=5 / sliced_threads=0 / nr=0 / decimate=1 / interlaced=0 / bluray_compat=0 / constrained_intra=0 / bframes=8 / b_pyramid=2 / b_adapt=2 / b_bias=0 / direct=3 / weightb=1 / open_gop=0 / weightp=2 / keyint=250 / keyint_min=25 / scenecut=40 / intra_refresh=0 / rc_lookahead=60 / rc=2pass / mbtree=1 / bitrate=1750 / ratetol=1.0 / qcomp=0.60 / qpmin=0 / qpmax=69 / qpstep=4 / cplxblur=20.0 / qblur=0.5 / ip_ratio=1.40 / aq=1:1.00
Language : German
Default : Yes
Forced : No

Audio #1
ID : 2
Format : AC-3
Format/Info : Audio Coding 3
Mode extension : CM (complete main)
Format settings, Endianness : Big
Codec ID : A_AC3
Duration : 1 h 37 min
Bit rate mode : Constant
Bit rate : 192 kb/s
Channel(s) : 2 channels
Channel positions : Front: L R
Sampling rate : 48.0 kHz
Frame rate : 31.250 FPS (1536 spf)
Bit depth : 16 bits
Compression mode : Lossy
Stream size : 134 MiB (9%)
Language : Russian
Default : Yes
Forced : No

Audio #2
ID : 3
Format : AC-3
Format/Info : Audio Coding 3
Mode extension : CM (complete main)
Format settings, Endianness : Big
Codec ID : A_AC3
Duration : 1 h 37 min
Bit rate mode : Constant
Bit rate : 192 kb/s
Channel(s) : 2 channels
Channel positions : Front: L R
Sampling rate : 48.0 kHz
Frame rate : 31.250 FPS (1536 spf)
Bit depth : 16 bits
Compression mode : Lossy
Stream size : 134 MiB (9%)
Language : German
Default : No
Forced : No








ПРИЯТНОГО ВСЕМ ПРОСМОТРА!

МОИ РАЗДАЧИ НА ФЕНИКСе: ЗДЕСЬ




Это сообщение отредактировал SanSan48 - 10.08.2017 - 07:29


--------------------
"Спартак" - ЧЕМПИОН!!!

Скрыть подпись
astr76
№2 Отправлено: 9.08.2017 - 17:40


Новичок

Группа: Потребители
Регистрация: 16.08.2008
Сообщений: 56
Обитает:
Последний раз был:
вчера в 22:21




Архивы распаковались, спасибо за такое качество. DD.gif
Top
SanSan48
№3 Отправлено: 9.08.2017 - 19:31


"Спартак" - ЧЕМПИОН!!!

Группа: Пользователи
Регистрация: 28.12.2009
Сообщений: 1823
Обитает:
Последний раз был:
вчера в 15:39




Цитата
( astr76 @ 9.08.2017 - 17:40)
Архивы распаковались, спасибо за такое качество. DD.gif

astr76, Благодарю за сообщение!


--------------------
"Спартак" - ЧЕМПИОН!!!

Скрыть подпись
Top
Dims888
№4 Отправлено: 20.08.2017 - 11:53


любитель животных

Группа: Потребители
Регистрация: 8.04.2012
Сообщений: 224
Последний раз был:
вчера в 19:34




Фильм в прокат выпускался дважды и оба раза в черно-белом варианте.
Хотя копия в Госфильмофонде была цветная.
Top
dimadima
№5 Отправлено: 20.08.2017 - 15:20


Живёт здесь

Группа: Аксакалы
Регистрация: 30.05.2008
Сообщений: 1101
Обитает:
Последний раз был:
cегодня в 00:42




Dims888, первый раз (в 62 году) - цветной согласно р/у. Но тогда все цветные фильмы допечатывались и в ч/б, поэтому кто-то мог смотреть и черно-белую копию.
Top
1 человек просматривает эту тему (1 гость)
« Предыдущая тема | Советский дубляж | Следующая тема »


 



[Script Execution time: 0,0408]   [23 queries used]   [GZIP enabled]