Заходят многие - остаются лучшие!
Здравствуйте Гость ( Вход | Регистрация ) Выслать повторно письмо для активации
Вход
Ваше имя Пароль Забыли пароль?
Запомнить Вас?
Войти скрытым?



 Правила раздела Новые сообщения раздела  


 

 Дитя Дуная / Марика / Das Kind der Donau / Marika (1950) [Полная версия], Музыкальный,мелодрама;Реж.-Г.Якоби;Роли-М.Рёкк,Ф.Ливер,Н.Тиллер
SanSan48
  №1 Отправлено: 28.05.2020 - 15:35


"Спартак" - ЧЕМПИОН!!!

Группа: Пользователи
Регистрация: 28.12.2009
Сообщений: 2156
Обитает:
Последний раз был:
8.07.2020 - 19:25




Дитя Дуная / Марика / Das Kind der Donau / Marika (1950) [Полная версия]



Предыдущие раздачи:
12.10.2007 (DVDrip)
12.10.2007 (DVDrip) (Архив)

Жанр: Музыкальный, мелодрама, комедия
Страна: Австрия, Nova-Film, Wien-Film
Год выпуска: 1950
Премьера (мир): 4 августа 1950 (Германия (ГДР)), 18 августа 1950 (Австрия)
Премьера (СССР): 15 мая 1950
Сценаристы: Георг Якоби / Georg Jacoby, Фридрих Шрейфогель / Friedrich Schreyvogel
Операторы: Ханнс Кёниг / Hanns König, Вальтер Римль / Walter Riml
Композитор: Нико Досталь / Nico Dostal
Художники: Юлиус фон Борсоди / Julius von Borsody, Хилл Райс-Громес / Hill Reihs-Gromes
Монтажёры: Паула Дворак / Paula Dvorak, Леонтина Кличка / Leontine Klicka

Режиссер: Георг Якоби / Georg Jacoby

В ролях:
Марика Рёкк / Marika Rökk ... Marika
Фред Ливер / Fred Liewehr ... Georg
Харри Фусс / Harry Fuß ... Heinrich
Фриц Муляр / Fritz Muliar ... Oskar
Йозеф Эггер / Joseph Egger ... Christoph
Анни Розар / Annie Rosar ... Frau Kovacs
Хелли Серви / Helli Servi ... Edith
Надя Тиллер / Nadja Tiller ...
Клаус Кински / Klaus Kinski
Эрика Кёрнер / Erika Körner ...
Росль Дорена / Rosl Dorena ...
Лотте Мартенс / Lotte Martens ...
Мими Штельцер / Mimi Stelzer ...
Эдит Прагер / Edith Prager ...
Карл Скрауп / Karl Skraup ...
Рудольф Карл / Rudolf Carl

Описание: На волнах голубого Дуная стоит на якоре буксирная баржа с весёлым именем "Марика", на ней живет белокурая девушка Марика (Марика Рёкк) - официантка и певица из местного кабачка "Ноев ковчег". Обветшавший кораблик принадлежал её покойному отцу, и девушка лелеет мечту скопить деньги на восстановление судна. Однажды вечером, поднявшись на борт своего плавучего дома, она находит чужого мужчину на своей кровати. Незваный гость, Георг (Фред Ливер), оказывается писателем, который хочет поселиться в этих чудесных местах. Марика разрешает ему пожить на её судне несколько деньков. Услышав, как поёт девушка, увидев, как она танцует, Георг предлагает сладкоголосой Марике создать собственный театр под открытым небом, чтобы на вырученные от концертов деньги восстановить корабль…

Дополнительная информация:
Релиз:

Исходник найден в сети.

Автор рипа: pmv

Большое спасибо за:
- аудиодорожку с русской озвучкой () - mvr121
- синхронизацию звуковой дорожки - pmv

Также выражаем особую огромную благодарность всей дружной авторской команде, участвовавшей в создании этого релиза:
- перевод пропущенных фрагментов и их озвучка – ССК+ (Сергей Квардаков)
- перевод песен и создание субтитров - pmv
- помощь в синхронизации звуковой дорожки - Urasik

* Марика Рёкк - актриса, от которой невозможно оторвать глаз. Волнующий голос, манящие взгляды, слегка вызывающие танцы, рискованные костюмы, безмерное кокетство, восхитительные ноги - всё это кружило голову зрителям в кинотеатрах. Свою спортивную манеру танца она принесла в кино с подмостков варьете и на съёмочной площадке работала с точностью хронометра. Несмотря на то что пик популярности актрисы пришёлся на период нацистского правления в Германии, актриса не снялась ни в одной из фашистских пропагандистских кинолент. В 1977 году Марика Рёкк была удостоена Золотого приза ФРГ за многолетнюю деятельность в искусстве. За свою долгую жизни актриса снялась более чем в сорока фильмах.

* Первый австрийский цветной полнометражный художественный фильм.

* В фильме наряду с Надей Тиллер снялся в нескольких эпизодах ставший позднее эпатажным, демонического образа, тогда ещё только начинающий актёр, Клаус Кински. Его имя в титрах отсутствует и, к сожалению, в фильмографии этот фильм тоже не указан. На одном из скринов видно, что он сидит за столом вместе с Надей Тиллер.

IMDb = 4,4/10 (32) - http://www.imdb.com/title/tt0042645
Кинопоиск = 4.756 (103) - http://www.kinopoisk.ru/film/80259

ВНИМАНИЕ!!! РИП ФОРМАТА mkv (кодек H.264) ВОСПРОИЗВОДИТСЯ НЕ НА ВСЕХ БЫТОВЫХ ВИДЕОПЛЕЕРАХ!!!

Параметры файла:
Название: Das Kind der Donau (1950, rus_dub,VO+ger+rus_song_sub).mkv
Качество видео: SATRip-AVC
Формат видео: MKV
Размер: 1,41 ГБ (1 519 705 890 байт)
Продолжительность: 01:47:23
Перевод: Профессиональный (двухголосый закадровый) - «Светла» + VO (ССК+) на пропущенные фрагменты
Субтитры: русские (форсированные) – только на песни (автор - PMV)
Оригинальная аудиодорожка: немецкий
Видео: AVC (H264), 696@742x572 (1.30:1), 25 fps, 1500 kbps, 0.151 Bits/Pixel
Аудио #1: AC3, 48 kHz, stereo (2 ch), 192 kbps - русский
Аудио #2: AC3, 48 kHz, stereo (2 ch), 192 kbps – немецкий


[pre]
General
Unique ID : 194821253158351625312207060969147165405 (0x92913561F6F1C66586504CFD6E5D6ADD)
Complete name : D:\torrents\Das-Kind-der-Donau-1950\Das Kind der Donau (1950, rus_dub,VO+ger+rus_song_sub).mkv
Format : Matroska
Format version : Version 4 / Version 2
File size : 1.42 GiB
Duration : 1 h 47 min
Overall bit rate : 1 887 kb/s
Encoded date : UTC 2020-05-27 16:52:34
Writing application : mkvmerge v6.7.0 ('Back to the Ground') 32bit built on Jan 8 2014 15:03:17
Writing library : libebml v1.3.0 + libmatroska v1.4.1

Video
ID : 1
Format : AVC
Format/Info : Advanced Video Codec
Format profile : High@L4.1
Format settings, CABAC : Yes
Format settings, RefFrames : 8 frames
Codec ID : V_MPEG4/ISO/AVC
Duration : 1 h 47 min
Bit rate : 1 500 kb/s
Width : 696 pixels
Height : 572 pixels
Display aspect ratio : 1.298
Frame rate mode : Constant
Frame rate : 25.000 FPS
Color space : YUV
Chroma subsampling : 4:2:0
Bit depth : 8 bits
Scan type : Progressive
Bits/(Pixel*Frame) : 0.151
Stream size : 1.10 GiB (78%)
Writing library : x264 core 157 r2958 57baac4
Encoding settings : cabac=1 / ref=8 / deblock=1:0:0 / analyse=0x3:0x133 / me=umh / subme=9 / psy=1 / psy_rd=1.00:0.00 / mixed_ref=1 / me_range=24 / chroma_me=1 / trellis=2 / 8x8dct=1 / cqm=0 / deadzone=21,11 / fast_pskip=1 / chroma_qp_offset=-2 / threads=18 / lookahead_threads=3 / sliced_threads=0 / nr=0 / decimate=1 / interlaced=0 / bluray_compat=0 / constrained_intra=0 / bframes=7 / b_pyramid=2 / b_adapt=2 / b_bias=0 / direct=3 / weightb=1 / open_gop=0 / weightp=2 / keyint=10 / keyint_min=6 / scenecut=40 / intra_refresh=0 / rc_lookahead=10 / rc=2pass / mbtree=1 / bitrate=1500 / ratetol=1.0 / qcomp=0.60 / qpmin=0 / qpmax=69 / qpstep=4 / cplxblur=20.0 / qblur=0.5 / ip_ratio=1.40 / aq=1:1.00
Language : German
Default : Yes
Forced : No
Color range : Limited
Color primaries : BT.601 PAL
Transfer characteristics : BT.470 System B, BT.470 System G
Matrix coefficients : BT.601

Audio #1
ID : 2
Format : AC-3
Format/Info : Audio Coding 3
Format settings, Endianness : Big
Codec ID : A_AC3
Duration : 1 h 47 min
Bit rate mode : Constant
Bit rate : 192 kb/s
Channel(s) : 2 channels
Channel positions : Front: L R
Sampling rate : 48.0 kHz
Frame rate : 31.250 FPS (1536 SPF)
Bit depth : 16 bits
Compression mode : Lossy
Stream size : 147 MiB (10%)
Language : Russian
Service kind : Complete Main
Default : Yes
Forced : No

Audio #2
ID : 3
Format : AC-3
Format/Info : Audio Coding 3
Format settings, Endianness : Big
Codec ID : A_AC3
Duration : 1 h 47 min
Bit rate mode : Constant
Bit rate : 192 kb/s
Channel(s) : 2 channels
Channel positions : Front: L R
Sampling rate : 48.0 kHz
Frame rate : 31.250 FPS (1536 SPF)
Bit depth : 16 bits
Compression mode : Lossy
Stream size : 147 MiB (10%)
Language : German
Service kind : Complete Main
Default : No
Forced : No

Text
ID : 4
Format : UTF-8
Codec ID : S_TEXT/UTF8
Codec ID/Info : UTF-8 Plain Text
Language : Russian
Default : Yes
Forced : No
[/pre]







МОИ РАЗДАЧИ НА ФЕНИКСе: ЗДЕСЬ




Это сообщение отредактировал SanSan48 - 28.05.2020 - 15:47


--------------------
"Спартак" - ЧЕМПИОН!!!

Скрыть подпись
sobinov
№2 Отправлено: 28.05.2020 - 17:33


Живёт здесь

Группа: Потребители
Регистрация: 18.07.2009
Сообщений: 3433
Обитает:
Последний раз был:
вчера в 12:39




Скачалось и собралось. Спасибо!
Top
SanSan48
№3 Отправлено: 28.05.2020 - 17:35


"Спартак" - ЧЕМПИОН!!!

Группа: Пользователи
Регистрация: 28.12.2009
Сообщений: 2156
Обитает:
Последний раз был:
8.07.2020 - 19:25




Цитата
( sobinov @ 28.05.2020 - 17:33)
Скачалось и собралось. Спасибо!

sobinov, Благодарю за информацию!


--------------------
"Спартак" - ЧЕМПИОН!!!

Скрыть подпись
Top
1 человек просматривает эту тему (1 гость)
« Предыдущая тема | Зарубежные фильмы | Следующая тема »


 



[Script Execution time: 0,0492]   [23 queries used]   [GZIP enabled]