Заходят многие - остаются лучшие!
Здравствуйте Гость ( Вход | Регистрация ) Выслать повторно письмо для активации
Вход
Ваше имя Пароль Забыли пароль?
Запомнить Вас?
Войти скрытым?



Новые сообщения раздела  

 

 Реальные Злые птицы / National Geographic. Real Angry Birds (2014), National Geographic
bornik
  №1 Отправлено: 3.09.2017 - 16:03


Воспоминания - это богатства старости.

Группа: Модераторы
Регистрация: 18.08.2008
Сообщений: 940
Обитает:
Последний раз был:
cегодня в 09:44




Реальные "Злые птицы" / National Geographic. Real Angry Birds (2014)



«Реальные "Злые птицы"» - компьютерные игры из серии "Злые птицы" популярны у детей, но как на самом деле дикие птицы выживают несмотря на свою агрессивность?
Им каждый день приходится заботиться о пропитании, потомстве, поиске самок и тому подобных непростых вещах.

Название: Реальные "Злые птицы"
Оригинальное название: Real Angry Birds
Год выпуска: 2014
Жанр: Документальный, природа, фауна, флора
Выпущено: Германия, NDR Naturfilm doclights GmbH, National Geographic
Продолжительность: 00:43:33
Субтитры: Русские (мои)


Режиссёр: Джон Ровер /Jorn Rover
Продюсер: Фил Коулс / Phil Coles


Программа озвучена студией "Велес"
Текст читает: Олег Белов





Описание: Игра "Angry Birds" покорила миллионы людей во всём мире. Каждый как минимум слышал про эту хитовую игрушку.
Но мало кто знает, что злые птички бывают не только в играх, но и в реальном мире. Мы, городские жители знакомы не только с безобидными пернатыми, однако в других местностях есть такие птички, которые запросто могут убить, при том не только свинью, но и человека. Вот такие птички.








General
Complete name : C:\DVD documental fimls\Реальные Злые птицы\Реальные Злые птицы (2014).avi
Format : AVI
Format/Info : Audio Video Interleave
File size : 687 MiB
Duration : 43mn 33s
Overall bit rate : 2 206 Kbps
Writing application : VirtualDubModRus 1.5.10.2 (build 2540/release)
Writing library : VirtualDubMod build 2540/release

Video
ID : 0
Format : MPEG-4 Visual
Format profile : Advanced Simple@L5
Format settings, BVOP : 2
Format settings, QPel : No
Format settings, GMC : No warppoints
Format settings, Matrix : Default (H.263)
Muxing mode : Packed bitstream
Codec ID : XVID
Codec ID/Hint : XviD
Duration : 43mn 33s
Bit rate : 2 005 Kbps
Width : 720 pixels
Height : 400 pixels
Display aspect ratio : 16:9
Frame rate : 25.000 fps
Color space : YUV
Chroma subsampling : 4:2:0
Bit depth : 8 bits
Scan type : Progressive
Compression mode : Lossy
Bits/(Pixel*Frame) : 0.278
Stream size : 625 MiB (91%)
Writing library : XviD 65

Audio
ID : 1
Format : MPEG Audio
Format version : Version 1
Format profile : Layer 3
Mode : Joint stereo
Mode extension : MS Stereo
Codec ID : 55
Codec ID/Hint : MP3
Duration : 43mn 33s
Bit rate mode : Constant
Bit rate : 192 Kbps
Channel(s) : 2 channels
Sampling rate : 48.0 KHz
Compression mode : Lossy
Stream size : 59.8 MiB (9%)
Alignment : Aligned on interleaves
Interleave, duration : 40 ms (1.00 video frame)
Interleave, preload duration : 504 ms
Writing library : LAME3.99r
Encoding settings : -m j -V 4 -q 3 -lowpass 18.6 -b 192


Записались на автоматическое включение в очередь: Alevtina, Nadejdaenergia, baziss, grival406

Если вы хотите, чтобы вас автоматически ставили в очередь на следующие фильмы о природе,
- сообщите об этом в теме последней раздачи.


=================================

Исходником послужил релиз HDTV, найденный на просторах инета!

Архивы созданы RAR-архиватором с добавлением 3% на восстановление и снабжены sfv-проверочником.
Просьба к первому скачавшему отписаться о сохранности архивов на источнике раздачи.

Раздача рассчитана на месяц.

ПРИЯТНОГО ВСЕМ ПРОСМОТРА !!!




--------------------
Безоблачная старость – это миф,
Поскольку наша память – ширь морская,
И к ночи начинается прилив,
Со дна обломки прошлого таская.
Игорь Губерман

Скрыть подпись


lmilchin
№2 Отправлено: 3.09.2017 - 19:06


Посетитель

Группа: Пользователи
Регистрация: 12.11.2009
Сообщений: 108
Обитает:
Последний раз был:
вчера в 21:38




bornik Спасибо. Архив в порядке.
Top
медикус
№3 Отправлено: 3.09.2017 - 21:47


Живёт здесь

Группа: Модераторы
Регистрация: 22.07.2008
Сообщений: 9161
Обитает:
Последний раз был:
cегодня в 11:15




Спасибо! Прошусь на "автомат" DD.gif


--------------------
"Тихо шифером шурша,
Крыша едет не спеша..."
Не помню, кто написал, но дома с этим согласны yes.gif

ПРОЕКТ: В музей - без поводка

Скрыть подпись
Top
bornik
№4 Отправлено: 3.09.2017 - 23:47


Воспоминания - это богатства старости.

Группа: Модераторы
Регистрация: 18.08.2008
Сообщений: 940
Обитает:
Последний раз был:
cегодня в 09:44




Цитата
( lmilchin @ 3.09.2017 - 19:06)
bornik Спасибо. Архив в порядке.

И Вам, lmilchin, спасибо за добрую весть. happy_fly.gif


--------------------
Безоблачная старость – это миф,
Поскольку наша память – ширь морская,
И к ночи начинается прилив,
Со дна обломки прошлого таская.
Игорь Губерман

Скрыть подпись
Top
bornik
№5 Отправлено: 3.09.2017 - 23:48


Воспоминания - это богатства старости.

Группа: Модераторы
Регистрация: 18.08.2008
Сообщений: 940
Обитает:
Последний раз был:
cегодня в 09:44




Цитата
( медикус @ 3.09.2017 - 21:47)
Спасибо! Прошусь на "автомат" DD.gif

ОК! Нет проблем. Раз надо, значит, надо. Конечно, поставлю.


--------------------
Безоблачная старость – это миф,
Поскольку наша память – ширь морская,
И к ночи начинается прилив,
Со дна обломки прошлого таская.
Игорь Губерман

Скрыть подпись
Top
1 человек просматривает эту тему (1 гость)
« Предыдущая тема | Мир вокруг нас | Следующая тема »


 



[Script Execution time: 0,0347]   [23 queries used]   [GZIP enabled]