Заходят многие - остаются лучшие!
Здравствуйте Гость ( Вход | Регистрация ) Выслать повторно письмо для активации
Вход
Ваше имя Пароль Забыли пароль?
Запомнить Вас?
Войти скрытым?



 Правила раздела Новые сообщения раздела  


 

 Неоконченный танец / The Unfinished Dance (1947), Маргарет О’Брайэн, Сид Черисс / драма из мира балета
surzhoks
  №1 Отправлено: 20.04.2017 - 18:42


Старожил

Группа: Аксакалы
Регистрация: 17.03.2008
Сообщений: 927
Обитает:
Последний раз был:
вчера в 12:06




Неоконченный танец / The Unfinished Dance


Страна: США
Студия: Metro-Goldwyn-Mayer (MGM)
Жанр: драма
Год выпуска: 1947
Продолжительность: 01:40:51
Режиссер: Генри Костер / Henry Koster
Композитор: Херберт Стотхарт / Herbert Stothart
В ролях:
Маргарет О’Брайэн / Margaret O'Brien ... «Meg» Merlin
Сид Черисс / Cyd Charisse ... Mlle. Ariane Bouchet
Карин Бут / Karin Booth ... La Darina
Дэнни Томас / Danny Thomas ... Mr. Paneros
Эстер Дэйл / Esther Dale ... Olga
Тьюрстон Холл / Thurston Hall ... Mr. Ronsell
Гарри Хейден / Harry Hayden ... Murphy
Элинор Донахью / Elinor Donahue (в титрах: Mary Eleanor Donahue) ... Josie
Конни Корнелл / Connie Cornell ... Phyllis
Рут Брэйди / Ruth Brady ... Miss Merlin
Чарльз Брэдстрит / Charles Bradstreet ... Fred Carleton
Энн Коуди / Ann Codee ... Mme. Borodin
Грегори Гайе / Gregory Gaye (в титрах: Gregory Gay) ... Jacques Lacoste
Лола Олбрайт / Lola Albright ... Fashion House Associate, в титрах не указана

Описание: Юная ученица балетной школы Мег восхищается прима-балериной Арианой Буше, которую выбрала себе в наставницы. Мэг огорчается, когда узнает, что балерина Дарина, а не Ариана Буше, будет исполнять ведущую роль в постановке “Лебединого озера”. Чтобы помешать этому, на премьере Мэг устраивает несчастный случай, в результате которого Дарина серьёзно пострадала и вынуждена была закончить карьеру танцовщицы. В результате Ариана становится звездой, в то время как Мэг, понимая, какую непростительную ошибку она совершила, ужасно мучается от чувства вины...

Доп. информация:
Огромное спасибо всем причастным к релизу:
рип - Магда,
перевод, озвучивание фильма - Владимир Воронцов (-Доцент-),
работа со звуком и реавторинг исходного DVD- AlekceyR76,
финансовая поддержка перевода и озвучивания фильма:
Магда, Lafajet, jasenka, елена 22, yanaelisa, cementit, HippopotamusIV, Patsy+, leoder, voostorg, surzhoks, Ugo927, sindzi, spartakeynoir

Архивы созданы RAR-архиватором с добавлением 3% на восстановление и снабжены sfv-проверочником.
Просьба к первому скачавшему отписаться о сохранности архивов на источнике раздачи.

Раздача рассчитана на 2 месяца. На просмотр линка и скачивание 5 дней!
В случае если вы встали в очередь, а затем отказываетесь от скачивания без объяснения причин, возможен отказ в последующих моих раздачах.



Полное имя :The Unfinished Dance.1947.DVDRip.avi
Формат : AVI
Формат/Информация : Audio Video Interleave
Размер файла : 1,59 Гбайт
Продолжительность : 1 ч. 40 м.
Общий поток : 2263 Кбит/сек
Программа кодирования : VirtualDubMod 1.5.4.1 (build 2178/release)
Библиотека кодирования : VirtualDubMod build 2178/release

Видео
Идентификатор : 0
Формат : MPEG-4 Visual
Профиль формата : Advanced Simple@L5
Параметр BVOP формата : 2
Параметр QPel формата : Нет
Параметр GMC формата : Без точки перехода
Параметр матрицы формата : Default (H.263)
Идентификатор кодека : DX50
Идентификатор кодека/Подсказка : DivX 5
Продолжительность : 1 ч. 40 м.
Битрейт : 1865 Кбит/сек
Ширина : 640 пикселей
Высота : 480 пикселей
Соотношение сторон : 4:3
Частота кадров : 23,976 кадра/сек
Цветовое пространство : YUV
Субдискретизация насыщенности : 4:2:0
Битовая глубина : 8 бит
Тип развёртки : Прогрессивная
Метод сжатия : С потерями
Бит/(Пиксели*Кадры) : 0.253
Размер потока : 1,31 Гбайт (82%)
Библиотека кодирования : XviD 73

Аудио #1
Идентификатор : 1
Формат : AC-3
Формат/Информация : Audio Coding 3
Расширение режима : CM (complete main)
Параметр Endianness формата : Big
Идентификатор кодека : 2000
Продолжительность : 1 ч. 40 м.
Вид битрейта : Постоянный
Битрейт : 192 Кбит/сек
Каналы : 2 канала
Расположение каналов : Front: L R
Частота : 48,0 КГц
Битовая глубина : 16 бит
Метод сжатия : С потерями
Размер потока : 139 Мбайт (8%)
Выравнивание : Разделение по промежуткам
Продолжительность промежутка : 42 мс. (1,00 видеокадр)
Время предзагрузки промежутка : 500 мс.

Аудио #2
Идентификатор : 2
Формат : AC-3
Формат/Информация : Audio Coding 3
Расширение режима : CM (complete main)
Параметр Endianness формата : Big
Идентификатор кодека : 2000
Продолжительность : 1 ч. 40 м.
Вид битрейта : Постоянный
Битрейт : 192 Кбит/сек
Каналы : 2 канала
Расположение каналов : Front: L R
Частота : 48,0 КГц
Битовая глубина : 16 бит
Метод сжатия : С потерями
Размер потока : 139 Мбайт (8%)
Выравнивание : Разделение по промежуткам
Продолжительность промежутка : 42 мс. (1,00 видеокадр)
Время предзагрузки промежутка : 500 мс.




--------------------
Искусство откладывать деньги сводится к умению сказать “нет” потребительскому обществу.

Скрыть подпись


kyo
№2 Отправлено: 20.04.2017 - 20:03


Живёт здесь

Группа: Потребители
Регистрация: 21.07.2007
Сообщений: 1690
Обитает:
Последний раз был:
вчера в 03:59




Архивы в порядке, спасибо !
Top
1 человек просматривает эту тему (1 гость)
« Предыдущая тема | Зарубежные фильмы | Следующая тема »


 



[Script Execution time: 0,0187]   [22 queries used]   [GZIP enabled]