Заходят многие - остаются лучшие!
Здравствуйте Гость ( Вход | Регистрация ) Выслать повторно письмо для активации
Вход
Ваше имя Пароль Забыли пароль?
Запомнить Вас?
Войти скрытым?



Новые сообщения раздела  

 

 Коневский Рождественский монастырь (2013), RTG Production Studios
bornik
  №1 Отправлено: 2.07.2018 - 17:19


Воспоминания - это богатства старости.

Группа: Модераторы
Регистрация: 18.08.2008
Сообщений: 1036
Обитает:
Последний раз был:
cегодня в 19:30




Коневский Рождественский монастырь (2013)



«Коневский Рождественский монастырь» — православный мужской монастырь на острове Коневец в западной части Ладожского озера в Ленинградской области. Основан преподобным Арсением Коневским. Часто рассматривается как двойник Валаамского монастыря, также расположенного на острове в Ладожском озере.


Оригинальное название: Коневский Рождественский монастырь
Год выпуска: 2013
Жанр: Документальный, познавательный
Выпущено: Россия, , RTG Production Studios
Продолжительность: 00:27:03
Субтитры: Русские (мои)


Режиссёр: Мария Смелкова / Maria Smelkova
Сценаристы: Андрей Зарва / Andrei Zarva

Ведущий: Игорь Максименко / Igor Maximenko


Описание: Северные земли России особо привлекали монахов, как места глухие и малонаселённые. И неудивительно, что первыми из россиян на острова в Ладожском озере - ступили именно ищущие уединения иноки. Остров Коневец, хотя и небольшой по размеру, даёт возможность полного уединения. Здесь можно испытать минуты, когда как будто заглядываешь в себя и прислушиваешься к своей душе. Такие мгновения запоминаются на всю жизнь, и когда сердце попросит тишины и покоя, нужно просто вспомнить эти минуты над водами Ладоги, где вокруг молчаливый лес, извилистый песчаный берег и мирный покой во всём. И неудивительно, что именно на этом острове находится одна из жемчужин Русского Севера, привлекающая паломников и туристов православная святыня - Коневский Рождество-Богородичный мужской монастырь.
Зрителям предлагается совершить небольшую видеоэкскурсию и узнать для себя немало нового и интересного!









General
Complete name : C:\DVD documental fimls\RTG\Коневский Рождественский монастырь\Коневский Рождественский монастырь (2013).avi
Format : AVI
Format/Info : Audio Video Interleave
File size : 426 MiB
Duration : 27mn 3s
Overall bit rate : 2 202 Kbps
Writing application : VirtualDubMod 1.5.10.2 (build 2540/release)
Writing library : VirtualDubMod build 2540/release

Video
ID : 0
Format : MPEG-4 Visual
Format profile : Advanced Simple@L5
Format settings, BVOP : 2
Format settings, QPel : No
Format settings, GMC : No warppoints
Format settings, Matrix : Default (H.263)
Muxing mode : Packed bitstream
Codec ID : XVID
Codec ID/Hint : XviD
Duration : 27mn 3s
Bit rate : 2 000 Kbps
Width : 720 pixels
Height : 400 pixels
Display aspect ratio : 16:9
Frame rate : 25.000 fps
Color space : YUV
Chroma subsampling : 4:2:0
Bit depth : 8 bits
Scan type : Progressive
Compression mode : Lossy
Bits/(Pixel*Frame) : 0.278
Stream size : 387 MiB (91%)
Writing library : XviD 65

Audio
ID : 1
Format : MPEG Audio
Format version : Version 1
Format profile : Layer 3
Codec ID : 55
Codec ID/Hint : MP3
Duration : 27mn 3s
Bit rate mode : Constant
Bit rate : 192 Kbps
Channel(s) : 2 channels
Sampling rate : 48.0 KHz
Compression mode : Lossy
Stream size : 37.2 MiB (9%)
Alignment : Aligned on interleaves
Interleave, duration : 40 ms (1.00 video frame)
Interleave, preload duration : 504 ms
Writing library : LAME3.98r
Encoding settings : -m s -V 4 -q 3 -lowpass 18.6 -b 192


=================================

Исходником послужил релиз HDTV, найденный на просторах инета!

Архивы созданы RAR-архиватором с добавлением 3% на восстановление и снабжены sfv-проверочником.
Просьба к первому скачавшему отписаться о сохранности архивов на источнике раздачи.


ПРИЯТНОГО ВСЕМ ПРОСМОТРА !!!




--------------------
Безоблачная старость – это миф,
Поскольку наша память – ширь морская,
И к ночи начинается прилив,
Со дна обломки прошлого таская.
Игорь Губерман

Скрыть подпись


bondsun
№2 Отправлено: 2.07.2018 - 18:23


кучерявый

Группа: Потребители
Регистрация: 17.08.2009
Сообщений: 4385
Обитает:
Последний раз был:
cегодня в 20:48





Благодарствую, архивы в порядке.


--------------------
Пусть рушится мир весь вокруг, пополам,
Пусть часто фортуна не прёт.
Не кофе нас должен бодрить по утрам,
А тот, кто его подаёт.

happy.gif

Скрыть подпись
Top
bornik
№3 Отправлено: 2.07.2018 - 18:57


Воспоминания - это богатства старости.

Группа: Модераторы
Регистрация: 18.08.2008
Сообщений: 1036
Обитает:
Последний раз был:
cегодня в 19:30




Цитата
( bondsun @ 2.07.2018 - 18:23)
Благодарствую, архивы в порядке.

И Вам, bondsun, спасибо за добрую весть. happy_fly.gif


--------------------
Безоблачная старость – это миф,
Поскольку наша память – ширь морская,
И к ночи начинается прилив,
Со дна обломки прошлого таская.
Игорь Губерман

Скрыть подпись
Top
1 человек просматривает эту тему (1 гость)
« Предыдущая тема | Мир вокруг нас | Следующая тема »


 



[Script Execution time: 0,0293]   [23 queries used]   [GZIP enabled]