Заходят многие - остаются лучшие!
Здравствуйте Гость ( Вход | Регистрация ) Выслать повторно письмо для активации
Вход
Ваше имя Пароль Забыли пароль?
Запомнить Вас?
Войти скрытым?



 Правила раздела Новые сообщения раздела  


 

 Один шанс из тысячи (1968), Военный,приключения;Реж.-Л.Кочарян;Роли-А.Солоницын,Ж.Прохоренко,Н.Гри
SanSan48
  №1 Отправлено: 6.06.2017 - 19:52


"Спартак" - ЧЕМПИОН!!!

Группа: Пользователи
Регистрация: 28.12.2009
Сообщений: 1909
Обитает:
Последний раз был:
cегодня в 08:12




Один шанс из тысячи (1968)



Предыдущие раздачи:
04.10.2014 (IPTVrip)
05.03.2014 (IPTVrip)
27.06.2007 (SATrip)
06.10.2014 (IPTVrip) Архив

Жанр: Военный, приключения
Выпущено: : CCCР, Одесская киностудия
Год выпуска: 1968
Премьера (СССР): 29 мая 1969
Премьера (мир): 22 августа 1969 (Финляндия)
Сценаристы: Леон Кочарян, Артур Макаров, Андрей Тарковский
Оператор: Вадим Авлошенко
Композитор: Юрий Левитин
Художники: Владимир Филиппов, П.Холщевников, С.Хилькевич
Монтажер: Эльвира Серова
Художественный руководитель: Андрей Тарковский

Режиссёр: Леон Кочарян

В ролях:
Анатолий Солоницын ... капитан Мигунько / он же разведчик Вайзинг - озвучивает Анатолий Кузнецов
Александр Фадеев ... Осянин, лейтенант
Николай Гринько ... Денис Корнеевич Прохоренко - озвучивает Константин Тыртов
Олег Халимонов ... Виктор Карцев
Владимир Лапин ... Венцель
Владимир Маренков ... Владимир Соколов
Лев Поляков ... Отто
Жанна Прохоренко ... Нина
Олег Савосин ... Циклоп, майор Крахт - озвучивает Юрий Саранцев
Харий Швейц ... Хари Хацель
Григорий Шпигель ... Ширах
Аркадий Свидерский ... Игорь и Серафим Семернины, близнецы
Аркадий Толбузин ... полковник
Гурген Тонунц ... Кестер
Павел Винник ... Глотке
Николай Крюков ... Двигубский

Описание: В 1942 году отряд разведчиков-десантников, действуя в тылу врага, прорывается из немецкого кольца. Возглавляемые капитаном Мигунько, бойцы добираются до шоссе, где захватывают легковую машину с Двигубским, агентом вражеской разведки. Капитан решает с его помощью проникнуть в разведывательный центр фашистов и ликвидировать его...

Дополнительная информация: Релиз:

Автор рипа: pmv

За исходник HDTV 1080i TS (запись с ТК «Первый HD») большое спасибо ylnian

Интересно:
- Владимир Высоцкий был приглашен сняться в фильме, однако отказался из-за нехватки свободного времени и вместо себя предложил кандидатуру Олега Халимонова.
- После болезни Леона Кочаряна Тарковский отказался продолжать работу над фильмом, предлагая назначить нового режиссёра. И хотя врачи определили Кочаряну месяц жизни, он упорно продолжал съёмки. После ухудшения его состояния Эдмонд Кеосаян провёл монтаж и досъёмки фильма.

IMDb = 6,9/10 (66) - http://www.imdb.com/title/tt0166291/
Кинопоиск = 6.491 (380) - https://www.kinopoisk.ru/film/42719/

ВНИМАНИЕ!!! РИП ФОРМАТА mkv (кодек H.264) ВОСПРОИЗВОДИТСЯ НЕ НА ВСЕХ БЫТОВЫХ ВИДЕОПЛЕЕРАХ!!!

Параметры файла:
Название: Один шанс из тысячи (1968, HDTV-rip).mkv
Качество видео: HDTVRip-AVC
Формат видео: MKV
Размер: 1,38 ГБ (1 482 903 200 bytes)
Продолжительность: 01:16:12
Видео: AVC (H264), 1152x496 (2.35:1), 25 fps, 2400 Kbps, 0.168 bit/pixel
Аудио: AC3, 48 KHz, stereo (2 ch), 192 kbps



General
Unique ID : 180869001095498145551163737749806015984 (0x88121A3EE3CC63BDBECF6B57985E65F0)
Complete name : D:\torrents\Один шанс из тысячи (1968, HDTV-rip).mkv
Format : Matroska
Format version : Version 4 / Version 2
File size : 1.38 GiB
Duration : 1h 16mn
Overall bit rate : 2 595 Kbps
Encoded date : UTC 2017-06-04 00:41:20
Writing application : mkvmerge v12.0.0 ('Trust / Lust') 64bit
Writing library : libebml v1.3.4 + libmatroska v1.4.5
DURATION : 01:16:12.032000000
NUMBER_OF_FRAMES : 142876
NUMBER_OF_BYTES : 109728768
_STATISTICS_WRITING_APP : mkvmerge v12.0.0 ('Trust / Lust') 64bit
_STATISTICS_WRITING_DATE_UTC : 2017-06-04 00:41:20
_STATISTICS_TAGS : BPS DURATION NUMBER_OF_FRAMES NUMBER_OF_BYTES

Video
ID : 1
Format : AVC
Format/Info : Advanced Video Codec
Format profile : High@L4.1
Format settings, CABAC : Yes
Format settings, ReFrames : 14 frames
Codec ID : V_MPEG4/ISO/AVC
Duration : 1h 16mn
Bit rate : 2 400 Kbps
Width : 1 152 pixels
Height : 496 pixels
Display aspect ratio : 2.35:1
Frame rate mode : Constant
Frame rate : 25.000 fps
Color space : YUV
Chroma subsampling : 4:2:0
Bit depth : 8 bits
Scan type : Progressive
Bits/(Pixel*Frame) : 0.168
Stream size : 1.25 GiB (91%)
Writing library : x264 core 146 r2538 121396c
Encoding settings : cabac=1 / ref=14 / deblock=1:0:0 / analyse=0x3:0x133 / me=umh / subme=10 / psy=1 / psy_rd=1.00:0.00 / mixed_ref=1 / me_range=24 / chroma_me=1 / trellis=2 / 8x8dct=1 / cqm=0 / deadzone=21,11 / fast_pskip=1 / chroma_qp_offset=-2 / threads=48 / lookahead_threads=3 / sliced_threads=0 / nr=0 / decimate=1 / interlaced=0 / bluray_compat=0 / constrained_intra=0 / bframes=8 / b_pyramid=2 / b_adapt=2 / b_bias=0 / direct=3 / weightb=1 / open_gop=0 / weightp=2 / keyint=250 / keyint_min=25 / scenecut=40 / intra_refresh=0 / rc_lookahead=60 / rc=2pass / mbtree=1 / bitrate=2400 / ratetol=1.0 / qcomp=0.60 / qpmin=0 / qpmax=69 / qpstep=4 / cplxblur=20.0 / qblur=0.5 / ip_ratio=1.40 / aq=1:1.00
Language : Russian
Default : Yes
Forced : No

Audio
ID : 2
Format : AC-3
Format/Info : Audio Coding 3
Mode extension : CM (complete main)
Format settings, Endianness : Big
Codec ID : A_AC3
Duration : 1h 16mn
Bit rate mode : Constant
Bit rate : 192 Kbps
Channel(s) : 2 channels
Channel positions : Front: L R
Sampling rate : 48.0 KHz
Bit depth : 16 bits
Compression mode : Lossy
Stream size : 105 MiB (7%)
Language : Russian
Default : Yes
Forced : No








МОИ РАЗДАЧИ НА ФЕНИКСе: ЗДЕСЬ




Это сообщение отредактировал SanSan48 - 6.06.2017 - 20:03


--------------------
"Спартак" - ЧЕМПИОН!!!

Скрыть подпись


kyo
№2 Отправлено: 6.06.2017 - 21:38


Живёт здесь

Группа: Потребители
Регистрация: 21.07.2007
Сообщений: 1989
Обитает:
Последний раз был:
cегодня в 05:43




Архивы в порядке, спасибо !
Top
SanSan48
№3 Отправлено: 10.06.2017 - 19:02


"Спартак" - ЧЕМПИОН!!!

Группа: Пользователи
Регистрация: 28.12.2009
Сообщений: 1909
Обитает:
Последний раз был:
cегодня в 08:12




Цитата
( kyo @ 6.06.2017 - 21:38)
Архивы в порядке, спасибо !

kyo, Благодарю за сообщение!

Приятного всем просмотра!


--------------------
"Спартак" - ЧЕМПИОН!!!

Скрыть подпись
Top
1 человек просматривает эту тему (1 гость)
« Предыдущая тема | Отечественное кино | Следующая тема »


 



[Script Execution time: 0,0287]   [24 queries used]   [GZIP enabled]