Заходят многие - остаются лучшие!
Здравствуйте Гость ( Вход | Регистрация ) Выслать повторно письмо для активации
Вход
Ваше имя Пароль Забыли пароль?
Запомнить Вас?
Войти скрытым?



 Правила раздела Новые сообщения раздела  


 

 Ташкент - город хлебный (полная версия) (1968), Драма;Реж.-Ш.Аббасов;Роли-В.Воробей,Н.Аринбасарова,В.Талызина
SanSan48
  №1 Отправлено: 23.06.2017 - 16:52


"Спартак" - ЧЕМПИОН!!!

Группа: Пользователи
Регистрация: 28.12.2009
Сообщений: 1929
Обитает:
Последний раз был:
вчера в 19:55




Ташкент - город хлебный (полная версия) (1968)



Предыдущие раздачи:
30.12.2010 (TVrip) 01:37:09
21.01.2009 (TVrip) 01:37:10

Жанр: Драма
Выпущено: СССР, Узбекфильм
Год выпуска: 1968
Премьера (СССР): 30 сентября 1968
Премьера (мир): 30 сентября 2007 (Япония)
Сценаристы: Андрей (Андрон) Михалков-Кончаловский, Александр Неверов, Андрей Тарковский (участие, в титрах не указан)
Оператор: Хатам Файзиев
Композитор: Альберт (Александр) Малахов
Художники: Эммануил Калантаров
Монтажер: М.Макарова

Режиссеры: Шухрат Аббасов / Shukhrat Abbasov

В ролях:
Владимир Воробей — Миша
Вова Куденков — Серёжа
Бахтияр Набиев — Рахим
Наталья Аринбасарова — чекистка Сауле
Николай Тимофеев — Дунаев, чекист
Валентина Талызина — Додонова, мать Миши
Александр Суснин — Стёпка Дранов, бандит
Раиса Куркина … медсестра
Виктор Колпаков … хромой солдат
Гани Агзамов … староста
Николай Юдин ... старик
Евгений Гуров … старик
Станислав Чекан … мешочник
Георгий Светлани ... мешочник
Владимир Липпарт ... мешочник Семён
Валентин Печников ... начальник поезда
Виктор Косых … жулик
Иван Косых ...

Описание: По мотивам одноимённой повести Александра Неверова, написанной в 1923 году.
Советская Россия, Поволжье, 1921 год. Не успели отгреметь битвы гражданской войны, как новая беда настигла молодую Советскую республику. Засуха иссушила землю Поволжья. Неурожай зерновых привёл к массовому голоду. Советская власть была не в состоянии помочь бедствующим крестьянам.Чтобы спасти мать и младших братьев от голода, крестьянский мальчик Миша Додонов вместе с другом Серёжей отправляется в Ташкент на заработки. По дороге Серёжа заболел тифом и остался в лазарете на одной из железнодорожных станций. Дальнейший путь Миша продолжил один. Испытав многочисленные лишения и опасности, непосильные и взрослому, он приезжает в Ташкент. Здесь он батрачит на виноградниках бая, с трудом, но выколачивает из него свой заработок. С деньгами и несколькими мешками зерна Миша возвращается в родную деревню. В живых он застаёт только больную, измождённую мать. Младшие братья Яша и Федя умерли от голода…

Дополнительная информация: Релиз:

Исходник взят с youtube.com

Автор рипа: pmv

* На всесоюзном кинофестивале в Алма-Ате в 1969 году фильм награждён призами за лучшую режиссуру (Ш.Аббасов), за лучшее художественно-декоративное решение (Э.Калантаров), за лучший фильм для детей и юношества.

* В 2013 году в столице Узбекистана состоялось значимое, но не замеченное официальной прессой событие: в одном из столичных кинотеатров скромно прошла премьера двухсерийной версии легендарного фильма «Ташкент - город хлебный», снятого в 1968 году узбекским кинорежиссером Шухратом Аббасовым по одноименной повести Александра Неверова. В кинопрокат в конце 60-х годов прошлого века картина пошла в обрезанном цензурой односерийном варианте. Но авторы ленты чудом спасли и сохранили копию оригинала фильма, которую им фактически пришлось выкрасть с киностудии «Узбекфильм».
Долгие годы копия хранилась в архивах оператора Хатама Файзиева. Лишь сорок пять лет спустя эта раритетная кинолента была оцифрована и показана зрителю на большом экране.

* Хронометраж полной версии фильма — 2 часа 33 минуты.

* Просьба извинить за очень плохое качество видео. К огромному сожалению, полную версию фильма в лучшем варианте в сети найти не удалось. Если кто-то может помочь, будем весьма рады и благодарны всем откликнувшимся.

IMDb = 7,2/10 (26) - http://www.imdb.com/title/tt0316730
Кинопоиск = 7.099 (180) - https://www.kinopoisk.ru/film/42214/

Параметры файла:
Название: Ташкент - город хлебный (1967, полн.верс.).avi
Качество видео: VHS
Формат видео: AVI
Размер: 676.20 Mb ( 709 051 040 bytes )
Продолжительность: 02:33:22.661 (220643 frames)
Видео: 608x264 (2.30:1), 23.976 fps, XviD build 73, ~479 kbps avg, 0.12 bit/pixel
Аудио: 44.100 kHz, MPEG Layer 3, 2 ch, ~128.00 kbps avg



General
Complete name : D:\torrents\Ташкент - город хлебный (1967, полн.верс.).avi
Format : AVI
Format/Info : Audio Video Interleave
File size : 746 MiB
Duration : 2 h 33 min
Overall bit rate : 680 kb/s
Writing application : VirtualDubMod 1.5.10.3 | www.virtualdub-fr.org || (build 2550/release)
Writing library : VirtualDub build 35576/release

Video
ID : 0
Format : MPEG-4 Visual
Format profile : Advanced Simple@L5
Format settings, BVOP : 2
Format settings, QPel : No
Format settings, GMC : No warppoints
Format settings, Matrix : Default (H.263)
Codec ID : XVID
Codec ID/Hint : XviD
Duration : 2 h 33 min
Bit rate : 479 kb/s
Width : 608 pixels
Height : 264 pixels
Display aspect ratio : 2.35:1
Frame rate : 23.976 (24000/1001) FPS
Color space : YUV
Chroma subsampling : 4:2:0
Bit depth : 8 bits
Scan type : Progressive
Compression mode : Lossy
Bits/(Pixel*Frame) : 0.124
Stream size : 525 MiB (70%)
Writing library : XviD 73

Audio
ID : 1
Format : AC-3
Format/Info : Audio Coding 3
Mode extension : CM (complete main)
Format settings, Endianness : Big
Codec ID : 2000
Duration : 2 h 33 min
Bit rate mode : Constant
Bit rate : 192 kb/s
Channel(s) : 2 channels
Channel positions : Front: L R
Sampling rate : 44.1 kHz
Frame rate : 28.711 FPS (1536 spf)
Bit depth : 16 bits
Compression mode : Lossy
Stream size : 211 MiB (28%)
Alignment : Split accross interleaves
Interleave, duration : 42 ms








МОИ РАЗДАЧИ НА ФЕНИКСе: ЗДЕСЬ




Это сообщение отредактировал SanSan48 - 24.06.2017 - 13:52


--------------------
"Спартак" - ЧЕМПИОН!!!

Скрыть подпись
fenixclub0313
№2 Отправлено: 23.06.2017 - 18:44


Завсегдатай

Группа: Аксакалы
Регистрация: 8.03.2013
Сообщений: 368
Последний раз был:
вчера в 05:59





SanSan48, архивы в порядке.
Top
SanSan48
№3 Отправлено: 23.06.2017 - 18:50


"Спартак" - ЧЕМПИОН!!!

Группа: Пользователи
Регистрация: 28.12.2009
Сообщений: 1929
Обитает:
Последний раз был:
вчера в 19:55




Цитата
( fenixclub0313 @ 23.06.2017 - 18:44)
SanSan48, архивы в порядке.

fenixclub0313, Благодарю за сообщение!


--------------------
"Спартак" - ЧЕМПИОН!!!

Скрыть подпись
Top
skurin
№4 Отправлено: 24.06.2017 - 14:50


Прохожий

Группа: Новички
Регистрация: 24.10.2011
Сообщений: 11
Последний раз был:
9.09.2018 - 16:09




Что-то я неправильно сделал.
- На "Скачал" нажал.
- Т.к. архивы имели вид: TaSGoRKhL67.part1.rar.part, пришлось стереть .part после .rar . Пароль сработал, первый архив начал распаковываться и в конце потребовал продолжить распаковку второго архива. Но т.к. оный тоже был с припиской .part после .rar, всё остановилось. Надо было в начале стереть"part" после .rar в каждом последующем архиве, да? Потом это уже не помогло, архивы не распаковывались.
Пардон, оказывается, архивы скачались не до конца, прервалось почему-то.


Это сообщение отредактировал skurin - 24.06.2017 - 15:23
Top
grival406
№5 Отправлено: 25.06.2017 - 17:38


Старожил

Группа: Потребители
Регистрация: 3.03.2016
Сообщений: 967
Обитает:
Последний раз был:
вчера в 17:53




SanSan48, большое спасибо!


--------------------
Я знаю только одного тирана, и это тихий голос совести.
Махатма Ганди

Скрыть подпись
Top
1 человек просматривает эту тему (1 гость)
« Предыдущая тема | Отечественное кино | Следующая тема »


 



[Script Execution time: 0,0297]   [24 queries used]   [GZIP enabled]