Заходят многие - остаются лучшие!
Здравствуйте Гость ( Вход | Регистрация ) Выслать повторно письмо для активации
Вход
Ваше имя Пароль Забыли пароль?
Запомнить Вас?
Войти скрытым?



 Правила раздела Новые сообщения раздела  


 

 Белые розы / Valkoiset Ruusut (1943), по мотивам новеллы Стефана Цвейга «Письмо незнакомки»
surzhoks
  №1 Отправлено: 18.05.2017 - 18:21


Старожил

Группа: Аксакалы
Регистрация: 17.03.2008
Сообщений: 969
Обитает:
Последний раз был:
16.11.2017 - 20:38




Белые розы / Valkoiset Ruusut


Страна: Финляндия
Студия: Suomen Filmiteollisuus Oy
Жанр: драма, мелодрама
Год выпуска: 1943
Продолжительность: 01:41:01

Режиссер: Ханну Леминен / Hannu Leminen
Сценаристы: Ханну Леминен / Hannu Leminen, Ильмари Унхо / Ilmari Unho
Композитор: Вяйно Хаапалайнен / Väinö Haapalainen
В ролях:
Хелена Кара / Helena Kara ... Auli Ranta
Тауно Пало / Tauno Palo ... kirjailija Arvo Helavalta
Аку Корхонен / Aku Korhonen ... Severi, Helavallan palvelija
Айно Лохикоски / Aino Lohikoski ... Alma Ranta, Aulin äiti
Хуго Хютёнен / Hugo Hytönen ... talonmies Enne
Мерви Ярвентаус / Mervi Järventaus ... Ilona Enne
Топпо Элонпера / Toppo Elonperä ... kauppias Antti Koskela
Эстер Тойвиайнен / Ester Toivonen ... Irma, Arvon rakastajatar
Туре Ара / Ture Ara (в титрах: Tuure Ara) ... Mauno Kallio
Ваппу Юркка / Vappu Jurkka ... Aulin luokkatoveri

Описание: Известному писателю исполнилось пятьдесят лет. Вместе с подарками от поклонников он получает странную посылку — дневник незнакомки и письмо, в котором говорится, что к тому времени ее уже не будет в живых. На страницах дневника рассказана история юной, наивной девушки, влюбившейся в писателя много лет назад...

- Фильм «Valkoiset Ruusut» («Белые розы») снят по мотивам новеллы Стефана Цвейга «Письмо незнакомки». Режиссер Ханну Леминен — признанный мастер изысканной комедии и мелодрамы, снискавший славу в 1940-е годы. Главную роль в фильме исполняет Тауно Пало, один из лучших финских актеров. По мнению некоторых критиков, «Белые розы» не уступают более известным экранизациям новеллы Цвейга, таким, как, например, «Letter from an Unknown Woman» Макса Офюльса.

Доп. информация:
Огромное спасибо всем причастным к релизу:
рип - Магда,
перевод и озвучивание фильма - Алексей Яковлев,
работа со звуком и реавторинг исходного DVD- AlekceyR76,
финансовая поддержка перевода и озвучивания фильма:
Магда, Lafajet, jasenka, елена 22, yanaelisa, sindzi, voostorg, Nmaska, repytwjd65, борюська, HippopotamusIV, spartakeynoir, mumzik69, cementit


Архивы созданы RAR-архиватором с добавлением 3% на восстановление и снабжены sfv-проверочником.
Просьба к первому скачавшему отписаться о сохранности архивов на источнике раздачи.

Раздача рассчитана на 2 месяца. На просмотр линка и скачивание 5 дней!
В случае если вы встали в очередь, а затем отказываетесь от скачивания без объяснения причин, возможен отказ в последующих моих раздачах.



Полное имя :Valkoiset ruusut.avi
Формат : AVI
Формат/Информация : Audio Video Interleave
Размер файла : 1,46 Гбайт
Продолжительность : 1 ч. 41 м.
Общий поток : 2068 Кбит/сек
Программа кодирования : VirtualDubMod 1.5.10.3 | www.virtualdub-fr.org || (build 2550/release)
Библиотека кодирования : VirtualDubMod build 2550/release

Видео
Идентификатор : 0
Формат : MPEG-4 Visual
Профиль формата : Advanced Simple@L5
Параметр BVOP формата : 2
Параметр QPel формата : Нет
Параметр GMC формата : Без точки перехода
Параметр матрицы формата : Default (H.263)
Идентификатор кодека : DX50
Идентификатор кодека/Подсказка : DivX 5
Продолжительность : 1 ч. 41 м.
Битрейт : 1862 Кбит/сек
Ширина : 688 пикселей
Высота : 528 пикселей
Соотношение сторон : 4:3
Частота кадров : 25,000 кадров/сек
Цветовое пространство : YUV
Субдискретизация насыщенности : 4:2:0
Битовая глубина : 8 бит
Тип развёртки : Прогрессивная
Метод сжатия : С потерями
Бит/(Пиксели*Кадры) : 0.205
Размер потока : 1,31 Гбайт (90%)
Библиотека кодирования : XviD 73

Аудио #1
Идентификатор : 1
Формат : AC-3
Формат/Информация : Audio Coding 3
Расширение режима : CM (complete main)
Параметр Endianness формата : Big
Идентификатор кодека : 2000
Продолжительность : 1 ч. 41 м.
Вид битрейта : Постоянный
Битрейт : 96,0 Кбит/сек
Каналы : 1 канал
Расположение каналов : Front: C
Частота : 48,0 КГц
Битовая глубина : 16 бит
Метод сжатия : С потерями
Размер потока : 69,4 Мбайт (5%)
Выравнивание : Разделение по промежуткам
Продолжительность промежутка : 40 мс. (1,00 видеокадр)
Время предзагрузки промежутка : 500 мс.

Аудио #2
Идентификатор : 2
Формат : AC-3
Формат/Информация : Audio Coding 3
Расширение режима : CM (complete main)
Параметр Endianness формата : Big
Идентификатор кодека : 2000
Продолжительность : 1 ч. 41 м.
Вид битрейта : Постоянный
Битрейт : 96,0 Кбит/сек
Каналы : 1 канал
Расположение каналов : Front: C
Частота : 48,0 КГц
Битовая глубина : 16 бит
Метод сжатия : С потерями
Размер потока : 69,4 Мбайт (5%)
Выравнивание : Разделение по промежуткам
Продолжительность промежутка : 40 мс. (1,00 видеокадр)
Время предзагрузки промежутка : 500 мс.




--------------------
Искусство откладывать деньги сводится к умению сказать “нет” потребительскому обществу.

Скрыть подпись


kyo
№2 Отправлено: 18.05.2017 - 19:48


Живёт здесь

Группа: Потребители
Регистрация: 21.07.2007
Сообщений: 1812
Обитает:
Последний раз был:
вчера в 18:47




Архивы в порядке, спасибо !
Top
1 человек просматривает эту тему (1 гость)
« Предыдущая тема | Зарубежные фильмы | Следующая тема »


 



[Script Execution time: 0,0279]   [23 queries used]   [GZIP enabled]