Заходят многие - остаются лучшие!
Здравствуйте Гость ( Вход | Регистрация ) Выслать повторно письмо для активации
Вход
Ваше имя Пароль Забыли пароль?
Запомнить Вас?
Войти скрытым?



 Правила раздела Новые сообщения раздела  


 

 Выстрел в тумане (1963), Старое советское кино
bornik
  №1 Отправлено: 1.04.2016 - 06:07


Воспоминания - это богатства старости.

Группа: Модераторы
Регистрация: 18.08.2008
Сообщений: 812
Обитает:
Последний раз был:
cегодня в 02:02




Выстрел в тумане



Предыдущая раздача 20.02.2008 г.
Предыдущая раздача 02.04.2011 г.

«Выстрел в тумане» - советский приключенческий фильм о шпионах 1963 года.

Жанр: Детектив
Выпущено: СССР, Мосфильм
Год выпуска: 1963
Премьера (СССР): 08 июня 1964 года

Режиссёры: Анатолий Бобровский, Александр Серый

В ролях:
Владимир Краснопольский (II) … Игорь Матвеевич Евдокимов (он же Пантелеев)
Лионелла Пырьева … Марина Александровна Миронова, жена Евдокимова (в титрах - Лионелла Скирда)
Юрий Горобец … Алексей Николаевич Киселев, подполковник
Роман Хомятов … Николай Лагутин, офицер КГБ
Бруно Оя … Бинкль, атташе
Михаил Майоров … Владимир Петрович, генерал КГБ
Владимир Колчин … Щербаков
Борис Кожухов … Родин
Андрей Файт … мистер Грин, полковник контрразведки
Николай Рушковский … Мезенцев
Виктор Байков … парикмахер Самарин, он же агент «Католик»
Галина Шостко … секретарь Бинкля
Анатолий Адоскин … Смилкис
Борис Белоусов … Глеб
Александра Денисова … Зоя Степановна, соседка Евдокимова в Малахове
Екатерина Куприянова … бабушка Марины (в титрах Е.Куприянова-Хованская)
Александр Кузнецов (II) … Слава
Юрий Мочалов … эпизод
Михаил Погоржельский … Павел Павлович Шуриков, профессор
Николай Прокопович … представитель издательства "Космос"
Виктор Файнлейб … эпизод
Рудольф Рудин … Женя (нет в титрах)

ОЗВУЧИВАНИЕ

Виктор Балашов … озвучивание иностранцев

Сценаристы: Владимир Алексеев, Михаил Маклярский
Оператор: Владимир Боганов
Композитор: Александр Флярковский
Художник: Николай Маркин




Описание: Первая же работа молодого учёного Игоря Пантелеева произвела сенсацию. Неудивительно, что им заинтересовалась иностранная разведка. Советские чекисты предпринимают меры по защите учёного. Имя Пантелеева исчезает со страниц газет и журналов. Учёного переводят на работу в другой НИИ, сменив фамилию на Евдокимова. Но благодаря случайности, заграничные шпионы нашли научного сотрудника. Во время охоты, любителем которой был Пантелеев-Евдокимов, был похищен ботинок учёного с остатками почвы с полигона, где проводились испытания под его руководством, а также записка с формулами, которые противник мог бы использовать в своих целях. Офицер госбезопасности, сопровождавший учёного, погнался за похитителем, но был тяжело ранен. Чекисты раскрывают преступление и обезвреживают врага.







Исходником послужил релиз DVB от Cheef mate (запись потока *.ts со спутника EUTELSAT, ремукс в *.mpg программой VideoReDo),
взятый с Рутрекера, за что ему БОЛЬШОЕ СПАСИБО!



Архивы созданы RAR-архиватором с добавлением 3% на восстановление и снабжены sfv-проверочником.
Просьба к первому скачавшему отписаться о сохранности архивов на источнике раздачи.

Раздача рассчитана на месяц.

ПРИЯТНОГО ВСЕМ ПРОСМОТРА !!!



General
Complete name : C:\Cinema\Выстрел в тумане (1963) TVRip.avi
Format : AVI
Format/Info : Audio Video Interleave
File size : 1.25 GiB
Duration : 1h 21mn
Overall bit rate : 2 205 Kbps
Writing application : VirtualDubMod 1.5.10.2 (build 2542/release)
Writing library : VirtualDubMod build 2542/release

Video
ID : 0
Format : MPEG-4 Visual
Format profile : Advanced Simple@L5
Format settings, BVOP : 2
Format settings, QPel : No
Format settings, GMC : No warppoints
Format settings, Matrix : Default (H.263)
Muxing mode : Packed bitstream
Codec ID : XVID
Codec ID/Hint : XviD
Duration : 1h 21mn
Bit rate : 2 003 Kbps
Width : 720 pixels
Height : 544 pixels
Display aspect ratio : 4:3
Frame rate : 25.000 fps
Color space : YUV
Chroma subsampling : 4:2:0
Bit depth : 8 bits
Scan type : Progressive
Compression mode : Lossy
Bits/(Pixel*Frame) : 0.205
Stream size : 1.14 GiB (91%)
Writing library : XviD 65

Audio
ID : 1
Format : MPEG Audio
Format version : Version 1
Format profile : Layer 3
Mode : Joint stereo
Mode extension : MS Stereo
Codec ID : 55
Codec ID/Hint : MP3
Duration : 1h 21mn
Bit rate mode : Constant
Bit rate : 192 Kbps
Channel(s) : 2 channels
Sampling rate : 48.0 KHz
Compression mode : Lossy
Stream size : 112 MiB (9%)
Alignment : Aligned on interleaves
Interleave, duration : 40 ms (1.00 video frame)
Interleave, preload duration : 504 ms
Writing library : LAME3.98r
Encoding settings : -m j -V 4 -q 3 -lowpass 18.6 -b 192


Другое участие: Chiefmate – предоставление исходной записи




--------------------
Безоблачная старость – это миф,
Поскольку наша память – ширь морская,
И к ночи начинается прилив,
Со дна обломки прошлого таская.
Игорь Губерман

Скрыть подпись
медикус
№2 Отправлено: 1.04.2016 - 10:48


Живёт здесь

Группа: Модераторы
Регистрация: 22.07.2008
Сообщений: 8685
Обитает:
Последний раз был:
cегодня в 01:18




Спасибо, архивы в порядке.


--------------------
"Тихо шифером шурша,
Крыша едет не спеша..."
Не помню, кто написал, но дома с этим согласны yes.gif

ПРОЕКТ: В музей - без поводка

Скрыть подпись
Top
bornik
№3 Отправлено: 1.04.2016 - 10:56


Воспоминания - это богатства старости.

Группа: Модераторы
Регистрация: 18.08.2008
Сообщений: 812
Обитает:
Последний раз был:
cегодня в 02:02




Цитата
( медикус @ 1.04.2016 - 10:48)
Спасибо, архивы в порядке.

медикус, а Вам спасибо за добрую весть. happy_fly.gif


--------------------
Безоблачная старость – это миф,
Поскольку наша память – ширь морская,
И к ночи начинается прилив,
Со дна обломки прошлого таская.
Игорь Губерман

Скрыть подпись
Top
bornik
№4 Отправлено: 3.05.2016 - 20:38


Воспоминания - это богатства старости.

Группа: Модераторы
Регистрация: 18.08.2008
Сообщений: 812
Обитает:
Последний раз был:
cегодня в 02:02




Всем спасибо.
Очередь закрыта. Если есть желающие - пишите в ПМ. wink2.gif


--------------------
Безоблачная старость – это миф,
Поскольку наша память – ширь морская,
И к ночи начинается прилив,
Со дна обломки прошлого таская.
Игорь Губерман

Скрыть подпись
Top
1 человек просматривает эту тему (1 гость)
« Предыдущая тема | Отечественное кино | Следующая тема »


 



[Script Execution time: 0,0205]   [23 queries used]   [GZIP enabled]