Заходят многие - остаются лучшие!
Здравствуйте Гость ( Вход | Регистрация ) Выслать повторно письмо для активации
Вход
Ваше имя Пароль Забыли пароль?
Запомнить Вас?
Войти скрытым?



 Правила раздела Новые сообщения раздела  


 

 Берега в тумане [2 серии] (1985), Старое советское кино
bornik
  №1 Отправлено: 2.04.2016 - 04:20


Воспоминания - это богатства старости.

Группа: Модераторы
Регистрация: 18.08.2008
Сообщений: 966
Обитает:
Последний раз был:
cегодня в 03:08




Берега в тумане [2 серии]



Предыдущая раздача 04.12.2008 г.

«Берега в тумане» (болг. Мъгливи брегове) - фильм режиссёра Юлия Карасика, снятый в жанре исторической драмы в 1985 году. Совместное производство Мосфильм (СССР) и студия «Бояна» (Болгария).

Жанр: Драма, исторический фильм
Выпущено: СССР Мосфильм, БОЛГАРИЯ Бояна
Год выпуска: 1985
Премьера: февраль 1986 года (Москва), 31 марта 1986 года (София)
Продолжительность: 02:16:18 (01:02:42 + 01:13:36)

Режиссёр: Юлий Карасик

В ролях:
Анатолий Кузнецов … полковник Сергей Егорьев;
Леонид Филатов … Дмитрий Шелопугин;
Ирина Купченко … Тамара Скаржинская;
Любовь Виролайнен … Анна Егорьева;
Николай Олялин … Пётр Врангель;
Пётр Щербаков … генерал Кутепов;
Алексей Жарков … полковник Самохвалов;
Стефан Данаилов … капитан Стойчев;
Сергей Юрский … Сидней Рейли;
Борис Луканов … Антон Христов;
Таня Димитрова … Райна;
Лучезар Стоянов … Петрев;
Борис Щербаков … Константин Галицкий;
Лев Поляков … Акулиничев;
Любомир Младенов … царь Борис III;
Пётр Гюров … полковник Вылков;
Валерий Бабятинский … Авдеев
Михаил Погоржельский … Викентий Илларионович;
Борис Токарев … Воронов;
Любомир Димитров … Калфов;
Дмитрий Матвеев … поручик Назаров;
Галина Макарова … Авдотья Ефимовна;
Никола Тодев … Ставрев;
Алексей Волков … Николай Егорьев
Валентина Ананьина … Акулиничева;
Досьо Досев … Костакис
Валерий Хлевинский … Трифон
Карен Джанибекян … Гурген Акопов
Геннадий Сайфулин … поручик
Галина Иванова … эпизод

Сценаристы: Будимир Метальников, Ангел Вагенштайн
Оператор: Пламен Вагенштайн
Композитор: Юрий Буцко
Художник: Евгений Черняев

Описание: Осень 1921 года. Тридцать тысяч русских солдат и офицеров разбитой в Крыму армии Врангеля нашли прибежище в Болгарии. Барон Врангель принимает рапорт генерала Кутепова об успешном завершении передислокации частей. Проходят тайные совещания не смирившихся с поражением лидеров Белого движения: барона Врангеля, генерала Шатилова, полковника контрразведки Самохвалова, с представителями Антанты, среди которых английские и французские офицеры, а также британский разведчик и авантюрист Сидней Рейли. На этих встречах обсуждаются вопросы дальнейшего сопротивления победившему в России большевизму.
На фоне таких политических реалий картина рассказывает о судьбе белогвардейского полковника Сергея Егорьева бежавшего через Турцию в Болгарию с сыном и дочерью. Его жена и младшая дочь, отставшие в Севастополе, нашли пристанище в семье Дмитрия Шелопугина. По стечению обстоятельств большевик Шелопугин направлен в Болгарию для агитационной работы среди русских солдат.










General
Complete name : C:\Cinema\Берега в тумане 1 (1985) TVRip.avi
Format : AVI
Format/Info : Audio Video Interleave
File size : 1.05 GiB
Duration : 1h 2mn
Overall bit rate : 2 405 Kbps
Writing application : VirtualDubMod 1.5.10.2 (build 2542/release)
Writing library : VirtualDubMod build 2542/release

Video
ID : 0
Format : MPEG-4 Visual
Format profile : Advanced Simple@L5
Format settings, BVOP : 2
Format settings, QPel : No
Format settings, GMC : No warppoints
Format settings, Matrix : Default (H.263)
Muxing mode : Packed bitstream
Codec ID : XVID
Codec ID/Hint : XviD
Duration : 1h 2mn
Bit rate : 2 204 Kbps
Width : 720 pixels
Height : 544 pixels
Display aspect ratio : 4:3
Frame rate : 25.000 fps
Color space : YUV
Chroma subsampling : 4:2:0
Bit depth : 8 bits
Scan type : Progressive
Compression mode : Lossy
Bits/(Pixel*Frame) : 0.225
Stream size : 988 MiB (92%)
Writing library : XviD 65

Audio
ID : 1
Format : MPEG Audio
Format version : Version 1
Format profile : Layer 3
Mode : Joint stereo
Mode extension : MS Stereo
Codec ID : 55
Codec ID/Hint : MP3
Duration : 1h 2mn
Bit rate mode : Constant
Bit rate : 192 Kbps
Channel(s) : 2 channels
Sampling rate : 48.0 KHz
Compression mode : Lossy
Stream size : 86.1 MiB (8%)
Alignment : Aligned on interleaves
Interleave, duration : 40 ms (1.00 video frame)
Interleave, preload duration : 504 ms
Writing library : LAME3.98r
Encoding settings : -m j -V 4 -q 3 -lowpass 18.6 -b 192





General
Complete name : C:\Cinema\Берега в тумане 2 (1985) TVRip.avi
Format : AVI
Format/Info : Audio Video Interleave
File size : 1.24 GiB
Duration : 1h 13mn
Overall bit rate : 2 404 Kbps
Writing application : VirtualDubModRus 1.5.10.2 (build 2540/release)
Writing library : VirtualDubMod build 2540/release

Video
ID : 0
Format : MPEG-4 Visual
Format profile : Advanced Simple@L5
Format settings, BVOP : 2
Format settings, QPel : No
Format settings, GMC : No warppoints
Format settings, Matrix : Default (H.263)
Muxing mode : Packed bitstream
Codec ID : XVID
Codec ID/Hint : XviD
Duration : 1h 13mn
Bit rate : 2 203 Kbps
Width : 720 pixels
Height : 544 pixels
Display aspect ratio : 4:3
Frame rate : 25.000 fps
Color space : YUV
Chroma subsampling : 4:2:0
Bit depth : 8 bits
Scan type : Progressive
Compression mode : Lossy
Bits/(Pixel*Frame) : 0.225
Stream size : 1.13 GiB (92%)
Writing library : XviD 65

Audio
ID : 1
Format : MPEG Audio
Format version : Version 1
Format profile : Layer 3
Mode : Joint stereo
Mode extension : MS Stereo
Codec ID : 55
Codec ID/Hint : MP3
Duration : 1h 13mn
Bit rate mode : Constant
Bit rate : 192 Kbps
Channel(s) : 2 channels
Sampling rate : 48.0 KHz
Compression mode : Lossy
Stream size : 101 MiB (8%)
Alignment : Aligned on interleaves
Interleave, duration : 40 ms (1.00 video frame)
Interleave, preload duration : 504 ms
Writing library : LAME3.99r
Encoding settings : -m j -V 4 -q 3 -lowpass 18.6 -b 192


Исходником послужил релиз DVB от Cheef mate (запись потока *.ts со спутника EUTELSAT 36A/B, 36° в.д., ремукс в *.mpg программой VideoReDo),
взятый с Рутрекера, за что ему БОЛЬШОЕ СПАСИБО!



Архивы созданы RAR-архиватором с добавлением 3% на восстановление и снабжены sfv-проверочником.
Просьба к первому скачавшему отписаться о сохранности архивов на источнике раздачи.

Раздача рассчитана на месяц.

ПРИЯТНОГО ВСЕМ ПРОСМОТРА !!!


Другое участие: Chiefmate – предоставление исходной записи




--------------------
Безоблачная старость – это миф,
Поскольку наша память – ширь морская,
И к ночи начинается прилив,
Со дна обломки прошлого таская.
Игорь Губерман

Скрыть подпись


EvgenySV
№2 Отправлено: 2.04.2016 - 06:24


Посетитель

Группа: Потребители
Регистрация: 30.12.2015
Сообщений: 187
Обитает:
Последний раз был:
вчера в 13:07




Спасибо, архивы в порядке.
Top
bornik
№3 Отправлено: 2.04.2016 - 18:00


Воспоминания - это богатства старости.

Группа: Модераторы
Регистрация: 18.08.2008
Сообщений: 966
Обитает:
Последний раз был:
cегодня в 03:08




Цитата
( EvgenySV @ 2.04.2016 - 06:24)
Спасибо, архивы в порядке.

EvgenySV, спасибо Вам за добрую весть. happy_fly.gif


--------------------
Безоблачная старость – это миф,
Поскольку наша память – ширь морская,
И к ночи начинается прилив,
Со дна обломки прошлого таская.
Игорь Губерман

Скрыть подпись
Top
nasrasedin
№4 Отправлено: 3.04.2016 - 00:14


Гость

Группа: Новички
Регистрация: 4.03.2016
Сообщений: 3
Обитает:
Последний раз был:
2.07.2016 - 01:08




Спасибо.
Top
bornik
№5 Отправлено: 3.04.2016 - 02:30


Воспоминания - это богатства старости.

Группа: Модераторы
Регистрация: 18.08.2008
Сообщений: 966
Обитает:
Последний раз был:
cегодня в 03:08




Цитата
( nasrasedin @ 3.04.2016 - 00:14)
Спасибо.

Пожалуйста. Приятного просмотра. wink2.gif


--------------------
Безоблачная старость – это миф,
Поскольку наша память – ширь морская,
И к ночи начинается прилив,
Со дна обломки прошлого таская.
Игорь Губерман

Скрыть подпись
Top
bornik
№6 Отправлено: 24.05.2016 - 19:37


Воспоминания - это богатства старости.

Группа: Модераторы
Регистрация: 18.08.2008
Сообщений: 966
Обитает:
Последний раз был:
cегодня в 03:08




Всем спасибо.
Очередь закрыта. Если есть желающие - пишите в ПМ. wink2.gif


--------------------
Безоблачная старость – это миф,
Поскольку наша память – ширь морская,
И к ночи начинается прилив,
Со дна обломки прошлого таская.
Игорь Губерман

Скрыть подпись
Top
1 человек просматривает эту тему (1 гость)
« Предыдущая тема | Отечественное кино | Следующая тема »


 



[Script Execution time: 0,0631]   [23 queries used]   [GZIP enabled]