Здравствуйте Гость ( Вход | Регистрация ) Выслать повторно письмо для активации
Вход
Ваше имя Пароль Забыли пароль?
Запомнить Вас?
Войти скрытым?



 Правила раздела Новые сообщения раздела  


 

 Отряд специального назначения [5 серий] (1987), Старое советское кино
bornik
  №1 Отправлено: 3.04.2016 - 08:33


Воспоминания - это богатства старости.

Группа: Модераторы
Регистрация: 18.08.2008
Сообщений: 800
Обитает:
Последний раз был:
cегодня в 13:02




Отряд специального назначения [5 серий]



Предыдущая раздача 13.08.2008 г.
Предыдущая раздача 25.10.2010 г.

«Отряд специального назначения» - пятисерийный художественный фильм о войне, экранизация повести Дмитрия Медведева «Это было под Ровно» (в поздней редакции — «Сильные духом») о разведчике Николае Кузнецове.

Жанр: Военная драма, приключения
Выпущено: СССР, Свердловская киностудия
Год выпуска: 1987
Премьера (СССР): 20 декабря 1987 года (ТВ)
Продолжительность: 05:43:30 (01:03:35 + 01:07:46 + 01:07:53 + 01:17:23 + 01:06:53)

Режиссёры: Георгий Кузнецов, Юрий Рыбчёнок

В ролях:
Александр Михайлов … разведчик Николай Кузнецов (Грачёв), обер-лейтенант (позже гауптман) Пауль Зиберт
Мирдза Мартинсоне … Лидия Лисовская
Юрий Гребенщиков … полковник Дмитрий Медведев
Михаил Жигалов … генерал-лейтенант
Анатолий Котенёв … Ян Каминский
Наталья Михеева … Валя Довгер (в титрах Наталья Тагиева)
Юрий Кузнецов … Сергей Трофимович Стехов, комиссар отряда
Юрий Жук … Александр Александрович Лукин, подполковник
Улдис Лиелдидж … Петер Кристиан Краузе, гауптштурмфюрер СС
Игорь Комаров
Анатолий Лукьяненко … Иван Белов
Юрий Алексеев
Олег Корчиков … предатель Наумов
Борис Клюев … Мартин фон Геттель
Ромуалдс Анцанс … Ульрих фон Ортель
Виктор Степанов … генерал фон Ильген
Владимир Олексеенко … сторож
Николай Сектименко … лейтенант Борис Крутиков
Александр Колбышев
Мирослав Маковийчук … Николай Гнидюк
Лариса Шахворостова (Тотунова) … Майя Микота
Валентин Голубенко … партизан
Виктор Поморцев
Юрий Рудченко … бандеровец
Михаил Аугуст
Александр Лебедев … часовой

Закадровый текст читает: Иван Краско.

Сценаристы: Владимир Акимов, Эдуард Володарский
Оператор: Геннадий Трубников
Композитор: Владимир Лебедев (II)
Художник: Борис Добровольский



Описание: Идёт июнь 1942 года. К заброске в район города Ровно готовится партизанский отряд полковника Дмитрия Медведева (Юрий Гребенщиков). Вместе с отрядом Медведева должен лететь и разведчик Николай Кузнецов (Александр Михайлов). Отряд забрасывается несколькими группами в разные дни, и не все попадают по назначению. Первая группа ошибочно выброшена в безлесой местности в нескольких сотнях километров от цели — и она погибла. Вторая группа тоже выброшена с ошибкой, но она цела и позднее соединится с основными силами. В третьей группе отправляются Медведев, Кузнецов. Третья группа прибывает на место благополучно.
Осенью 1942 года Кузнецов под видом немецкого офицера должен первый раз появиться в Ровно…


• Банеры с названием фильма, после рекламных вставок и анонсом следующих передач в раздаче присутствуют.








General
Complete name : C:\Cinema\Отряд специального назначения 1 (1987) TVRip.avi
Format : AVI
Format/Info : Audio Video Interleave
File size : 1 002 MiB
Duration : 1h 3mn
Overall bit rate : 2 204 Kbps
Writing library : VirtualDub build 35491/release

Video
ID : 0
Format : MPEG-4 Visual
Format profile : Advanced Simple@L5
Format settings, BVOP : 2
Format settings, QPel : No
Format settings, GMC : No warppoints
Format settings, Matrix : Default (H.263)
Muxing mode : Packed bitstream
Codec ID : XVID
Codec ID/Hint : XviD
Duration : 1h 3mn
Bit rate : 2 002 Kbps
Width : 720 pixels
Height : 544 pixels
Display aspect ratio : 4:3
Frame rate : 25.000 fps
Color space : YUV
Chroma subsampling : 4:2:0
Bit depth : 8 bits
Scan type : Progressive
Compression mode : Lossy
Bits/(Pixel*Frame) : 0.204
Stream size : 911 MiB (91%)
Writing library : XviD 65

Audio
ID : 1
Format : AC-3
Format/Info : Audio Coding 3
Mode extension : CM (complete main)
Codec ID : 2000
Duration : 1h 3mn
Bit rate mode : Constant
Bit rate : 192 Kbps
Channel(s) : 2 channels
Channel positions : Front: L R
Sampling rate : 48.0 KHz
Bit depth : 16 bits
Compression mode : Lossy
Stream size : 87.3 MiB (9%)
Alignment : Aligned on interleaves
Interleave, duration : 40 ms (1.00 video frame)
Interleave, preload duration : 512 ms


General
Complete name : C:\Cinema\Отряд специального назначения 2 (1987) TVRip.avi
Format : AVI
Format/Info : Audio Video Interleave
File size : 1.04 GiB
Duration : 1h 7mn
Overall bit rate : 2 204 Kbps
Writing library : VirtualDub build 35491/release

Video
ID : 0
Format : MPEG-4 Visual
Format profile : Advanced Simple@L5
Format settings, BVOP : 2
Format settings, QPel : No
Format settings, GMC : No warppoints
Format settings, Matrix : Default (H.263)
Muxing mode : Packed bitstream
Codec ID : XVID
Codec ID/Hint : XviD
Duration : 1h 7mn
Bit rate : 2 002 Kbps
Width : 720 pixels
Height : 544 pixels
Display aspect ratio : 4:3
Frame rate : 25.000 fps
Color space : YUV
Chroma subsampling : 4:2:0
Bit depth : 8 bits
Scan type : Progressive
Compression mode : Lossy
Bits/(Pixel*Frame) : 0.204
Stream size : 970 MiB (91%)
Writing library : XviD 65

Audio
ID : 1
Format : AC-3
Format/Info : Audio Coding 3
Mode extension : CM (complete main)
Codec ID : 2000
Duration : 1h 7mn
Bit rate mode : Constant
Bit rate : 192 Kbps
Channel(s) : 2 channels
Channel positions : Front: L R
Sampling rate : 48.0 KHz
Bit depth : 16 bits
Compression mode : Lossy
Stream size : 93.1 MiB (9%)
Alignment : Aligned on interleaves
Interleave, duration : 40 ms (1.00 video frame)
Interleave, preload duration : 512 ms


General
Complete name : C:\Cinema\Отряд специального назначения 3 (1987) TVRip.avi
Format : AVI
Format/Info : Audio Video Interleave
File size : 1.04 GiB
Duration : 1h 7mn
Overall bit rate : 2 204 Kbps
Writing library : VirtualDub build 35491/release

Video
ID : 0
Format : MPEG-4 Visual
Format profile : Advanced Simple@L5
Format settings, BVOP : 2
Format settings, QPel : No
Format settings, GMC : No warppoints
Format settings, Matrix : Default (H.263)
Muxing mode : Packed bitstream
Codec ID : XVID
Codec ID/Hint : XviD
Duration : 1h 7mn
Bit rate : 2 002 Kbps
Width : 720 pixels
Height : 544 pixels
Display aspect ratio : 4:3
Frame rate : 25.000 fps
Color space : YUV
Chroma subsampling : 4:2:0
Bit depth : 8 bits
Scan type : Progressive
Compression mode : Lossy
Bits/(Pixel*Frame) : 0.204
Stream size : 972 MiB (91%)
Writing library : XviD 65

Audio
ID : 1
Format : AC-3
Format/Info : Audio Coding 3
Mode extension : CM (complete main)
Codec ID : 2000
Duration : 1h 7mn
Bit rate mode : Constant
Bit rate : 192 Kbps
Channel(s) : 2 channels
Channel positions : Front: L R
Sampling rate : 48.0 KHz
Bit depth : 16 bits
Compression mode : Lossy
Stream size : 93.2 MiB (9%)
Alignment : Aligned on interleaves
Interleave, duration : 40 ms (1.00 video frame)
Interleave, preload duration : 512 ms


General
Complete name : C:\Cinema\Отряд специального назначения 4 (1987) TVRip.avi
Format : AVI
Format/Info : Audio Video Interleave
File size : 1.19 GiB
Duration : 1h 17mn
Overall bit rate : 2 204 Kbps
Writing library : VirtualDub build 35491/release

Video
ID : 0
Format : MPEG-4 Visual
Format profile : Advanced Simple@L5
Format settings, BVOP : 2
Format settings, QPel : No
Format settings, GMC : No warppoints
Format settings, Matrix : Default (H.263)
Muxing mode : Packed bitstream
Codec ID : XVID
Codec ID/Hint : XviD
Duration : 1h 17mn
Bit rate : 2 002 Kbps
Width : 720 pixels
Height : 544 pixels
Display aspect ratio : 4:3
Frame rate : 25.000 fps
Color space : YUV
Chroma subsampling : 4:2:0
Bit depth : 8 bits
Scan type : Progressive
Compression mode : Lossy
Bits/(Pixel*Frame) : 0.204
Stream size : 1.08 GiB (91%)
Writing library : XviD 65

Audio
ID : 1
Format : AC-3
Format/Info : Audio Coding 3
Mode extension : CM (complete main)
Codec ID : 2000
Duration : 1h 17mn
Bit rate mode : Constant
Bit rate : 192 Kbps
Channel(s) : 2 channels
Channel positions : Front: L R
Sampling rate : 48.0 KHz
Bit depth : 16 bits
Compression mode : Lossy
Stream size : 106 MiB (9%)
Alignment : Aligned on interleaves
Interleave, duration : 40 ms (1.00 video frame)
Interleave, preload duration : 512 ms


General
Complete name : C:\Cinema\Отряд специального назначения 5 (1987) TVRip.avi
Format : AVI
Format/Info : Audio Video Interleave
File size : 1.03 GiB
Duration : 1h 6mn
Overall bit rate : 2 204 Kbps
Writing library : VirtualDub build 35491/release

Video
ID : 0
Format : MPEG-4 Visual
Format profile : Advanced Simple@L5
Format settings, BVOP : 2
Format settings, QPel : No
Format settings, GMC : No warppoints
Format settings, Matrix : Default (H.263)
Muxing mode : Packed bitstream
Codec ID : XVID
Codec ID/Hint : XviD
Duration : 1h 6mn
Bit rate : 2 002 Kbps
Width : 720 pixels
Height : 544 pixels
Display aspect ratio : 4:3
Frame rate : 25.000 fps
Color space : YUV
Chroma subsampling : 4:2:0
Bit depth : 8 bits
Scan type : Progressive
Compression mode : Lossy
Bits/(Pixel*Frame) : 0.204
Stream size : 958 MiB (91%)
Writing library : XviD 65

Audio
ID : 1
Format : AC-3
Format/Info : Audio Coding 3
Mode extension : CM (complete main)
Codec ID : 2000
Duration : 1h 6mn
Bit rate mode : Constant
Bit rate : 192 Kbps
Channel(s) : 2 channels
Channel positions : Front: L R
Sampling rate : 48.0 KHz
Bit depth : 16 bits
Compression mode : Lossy
Stream size : 91.9 MiB (9%)
Alignment : Aligned on interleaves
Interleave, duration : 40 ms (1.00 video frame)
Interleave, preload duration : 512 ms


Исходником послужил релиз DVB от Cheef mate (запись потока *.ts со спутника EUTELSAT 36A/B, 36° в.д., ремукс в *.mpg программой VideoReDo),
взятый с Рутрекера, за что ему БОЛЬШОЕ СПАСИБО!



Архивы созданы RAR-архиватором с добавлением 3% на восстановление и снабжены sfv-проверочником.
Просьба к первому скачавшему отписаться о сохранности архивов на источнике раздачи.

Раздача рассчитана на месяц.

ПРИЯТНОГО ВСЕМ ПРОСМОТРА !!!



Другое участие: Chiefmate – предоставление исходной записи




--------------------
Безоблачная старость – это миф,
Поскольку наша память – ширь морская,
И к ночи начинается прилив,
Со дна обломки прошлого таская.
Игорь Губерман

Скрыть подпись


bondsun
№2 Отправлено: 3.04.2016 - 17:31


кучерявый

Группа: Потребители
Регистрация: 17.08.2009
Сообщений: 4008
Обитает:
Последний раз был:
cегодня в 16:39





Благодарствую, архивы в порядке.


--------------------
Пусть рушится мир весь вокруг, пополам,
Пусть часто фортуна не прёт.
Не кофе нас должен бодрить по утрам,
А тот, кто его подаёт.

happy.gif

Скрыть подпись
Top
bornik
№3 Отправлено: 3.04.2016 - 18:32


Воспоминания - это богатства старости.

Группа: Модераторы
Регистрация: 18.08.2008
Сообщений: 800
Обитает:
Последний раз был:
cегодня в 13:02




Цитата
( bondsun @ 3.04.2016 - 17:31)
Благодарствую, архивы в порядке.

bondsun, а Вам спасибо за добрую весть. happy_fly.gif


--------------------
Безоблачная старость – это миф,
Поскольку наша память – ширь морская,
И к ночи начинается прилив,
Со дна обломки прошлого таская.
Игорь Губерман

Скрыть подпись
Top
bornik
№4 Отправлено: 24.05.2016 - 19:52


Воспоминания - это богатства старости.

Группа: Модераторы
Регистрация: 18.08.2008
Сообщений: 800
Обитает:
Последний раз был:
cегодня в 13:02




Всем спасибо.
Очередь закрыта. Если есть желающие - пишите в ПМ. wink2.gif


--------------------
Безоблачная старость – это миф,
Поскольку наша память – ширь морская,
И к ночи начинается прилив,
Со дна обломки прошлого таская.
Игорь Губерман

Скрыть подпись
Top
1 человек просматривает эту тему (1 гость)
« Предыдущая тема | Отечественное кино | Следующая тема »


 



[Script Execution time: 0,0627]   [23 queries used]   [GZIP enabled]