Заходят многие - остаются лучшие!
Здравствуйте Гость ( Вход | Регистрация ) Выслать повторно письмо для активации
Вход
Ваше имя Пароль Забыли пароль?
Запомнить Вас?
Войти скрытым?



 Правила раздела Новые сообщения раздела  


 

 Вход для персонала / Employees' Entrance (1933), Уоррен Уильям, Лоретта Янг / мелодрама
surzhoks
  №1 Отправлено: 1.03.2017 - 18:06


Старожил

Группа: Аксакалы
Регистрация: 17.03.2008
Сообщений: 965
Обитает:
Последний раз был:
14.09.2017 - 19:11




Вход для персонала / Employees' Entrance


Страна: США
Студия: First National Pictures Inc.
Жанр: драма, мелодрама
Год выпуска: 1933
Продолжительность: 01:14:53
Режиссер: Рой Дель Рут / Roy Del Ruth
Композитор: Бернхард Каун / Bernhard Kaun
В ролях:
Уоррен Уильям / Warren William ... Kurt Anderson
Лоретта Янг / Loretta Young ... Madeleine Walters West
Уоллес Форд / Wallace Ford ... Martin West
Элис Уайт / Alice White ... Polly Dale
Хейл Хэмилтон / Hale Hamilton ... Commodore Franklin Monroe
Альберт Грэн / Albert Gran ... Denton Ross
Мерджори Гатесон / Marjorie Gateson ... Mrs. Lee Hickox
Рут Доннелли / Ruth Donnelly ... Miss Hall
Фрэнк Рейхер / Frank Reicher ... Garfinkle
Чарльз Селлон / Charles Sellon ... Arnold Higgins
Фрэнк МакГлинн ст. / Frank McGlynn Sr. ... The Editor

Описание: Курт Андерсон - генеральный директор универмага Монро. Выделяясь диктаторскими замашками и безжалостной преданностью философии прибыли, он добивается хороших результатов продаж, но при этом наживает себе множество врагов среди сотрудников универмага. Однажды вечером после закрытия магазина Курт Андерсон встречает Мадлен Уолтерс - красивую молодую женщину, которая ищет работу. Она соглашается провести с Куртом ночь и в результате получает работу в универмаге. Там Мадлен знакомится с Мартином Уэстом, который ходит в любимчиках у Курта Андерсона благодаря своим идеям по увеличению продаж. Курт даже назначает его своим помощником, но предупреждает, что это не работа для женатого мужчины. Несмотря на предупреждения Андерсона, Мартин и Мадлен тайно женятся...


Доп. информация:
Огромное спасибо всем причастным к релизу:
рип - Магда,
перевод и озвучивание фильма - Дмитрий Есарев,
работа со звуком и реавторинг исходного DVD- AlekceyR76,
финансовая поддержка перевода и озвучивания фильма:
Магда, Lafajet, jasenka, елена 22, yanaelisa, voostorg, Ugo927, mumzik69, surzhoks, Lars134, leoder, sapog1960, борюська, Лямдазонд, cementit, BaluBaly

Архивы созданы RAR-архиватором с добавлением 3% на восстановление и снабжены sfv-проверочником.
Просьба к первому скачавшему отписаться о сохранности архивов на источнике раздачи.

Раздача рассчитана на 2 месяца. На просмотр линка и скачивание 5 дней!
В случае если вы встали в очередь, а затем отказываетесь от скачивания без объяснения причин, возможен отказ в последующих моих раздачах.



Полное имя :Employees Entrance.avi
Формат : AVI
Формат/Информация : Audio Video Interleave
Размер файла : 1,37 Гбайт
Продолжительность : 1 ч. 14 м.
Общий поток : 2619 Кбит/сек
Программа кодирования : VirtualDubMod 1.5.10.3 | www.virtualdub-fr.org || (build 2550/release)
Библиотека кодирования : VirtualDubMod build 2550/release

Видео
Идентификатор : 0
Формат : MPEG-4 Visual
Профиль формата : Advanced Simple@L5
Параметр BVOP формата : 2
Параметр QPel формата : Нет
Параметр GMC формата : Без точки перехода
Параметр матрицы формата : Default (H.263)
Идентификатор кодека : DX50
Идентификатор кодека/Подсказка : DivX 5
Продолжительность : 1 ч. 14 м.
Битрейт : 2221 Кбит/сек
Ширина : 640 пикселей
Высота : 480 пикселей
Соотношение сторон : 4:3
Частота кадров : 23,976 кадра/сек
Цветовое пространство : YUV
Субдискретизация насыщенности : 4:2:0
Битовая глубина : 8 бит
Тип развёртки : Прогрессивная
Метод сжатия : С потерями
Бит/(Пиксели*Кадры) : 0.302
Размер потока : 1,16 Гбайт (85%)
Библиотека кодирования : XviD 73

Аудио #1
Идентификатор : 1
Формат : AC-3
Формат/Информация : Audio Coding 3
Расширение режима : CM (complete main)
Параметр Endianness формата : Big
Идентификатор кодека : 2000
Продолжительность : 1 ч. 14 м.
Вид битрейта : Постоянный
Битрейт : 192 Кбит/сек
Каналы : 2 канала
Расположение каналов : Front: L R
Частота : 48,0 КГц
Битовая глубина : 16 бит
Метод сжатия : С потерями
Размер потока : 103 Мбайт (7%)
Выравнивание : Разделение по промежуткам
Продолжительность промежутка : 42 мс. (1,00 видеокадр)
Время предзагрузки промежутка : 500 мс.

Аудио #2
Идентификатор : 2
Формат : AC-3
Формат/Информация : Audio Coding 3
Расширение режима : CM (complete main)
Параметр Endianness формата : Big
Идентификатор кодека : 2000
Продолжительность : 1 ч. 14 м.
Вид битрейта : Постоянный
Битрейт : 192 Кбит/сек
Каналы : 2 канала
Расположение каналов : Front: L R
Частота : 48,0 КГц
Битовая глубина : 16 бит
Метод сжатия : С потерями
Размер потока : 103 Мбайт (7%)
Выравнивание : Разделение по промежуткам
Продолжительность промежутка : 42 мс. (1,00 видеокадр)
Время предзагрузки промежутка : 500 мс.




--------------------
Искусство откладывать деньги сводится к умению сказать “нет” потребительскому обществу.

Скрыть подпись


vjub58
№2 Отправлено: 1.03.2017 - 21:07


Практикующий эсквайр

Группа: Аксакалы
Регистрация: 6.12.2005
Сообщений: 4574
Обитает:
Последний раз был:
18.09.2017 - 09:47




Спасибо, все ОК. pozdrav_buket.gif
Top
1 человек просматривает эту тему (1 гость)
« Предыдущая тема | Зарубежные фильмы | Следующая тема »


 



[Script Execution time: 0,0290]   [23 queries used]   [GZIP enabled]