Заходят многие - остаются лучшие!
Здравствуйте Гость ( Вход | Регистрация ) Выслать повторно письмо для активации
Вход
Ваше имя Пароль Забыли пароль?
Запомнить Вас?
Войти скрытым?



 Правила раздела Новые сообщения раздела  


 

 Великий самозванец / The Great Impostor (1961), Тони Кертис / драма, комедия
surzhoks
  №1 Отправлено: 17.10.2019 - 19:59


Живёт здесь

Группа: Аксакалы
Регистрация: 17.03.2008
Сообщений: 1175
Обитает:
Последний раз был:
9.11.2019 - 12:21




Великий самозванец / The Great Impostor


Страна: США
Студия: Universal Pictures
Жанр: трагикомедия
Год выпуска: 1961
Продолжительность: 01:47:43
Режиссер: Роберт Маллиган / Robert Mulligan
Композитор: Генри Манчини / Henry Mancini
В ролях:
Тони Кертис / Tony Curtis ... Ferdinand Waldo Demara Jr. / Martin Donner / Dr. Gilbert / Ben. W. Stone / Dr. Joseph Mornay / Robert Boyd Hammnd
Карл Молден / Karl Malden... Father Devlin,
Эдмонд О’Брайен / Edmond O'Brien ... Capt. Glover - HMCS Cayuga
Артур О’Коннелл / Arthur O'Connell ... Warden J.B. Chandler
Гэри Меррил / Gary Merrill ... Pa Demara
Джоан Блэкман / Joan Blackman ... Lt. Catherine Lacey
Рэймонд Мэсси / Raymond Massey ... Abbott Donner
Роберт Миддлтон / Robert Middleton ... R.C. Brown
Жанетт Нолан / Jeanette Nolan ... Ma Demara
Сью Эни Лэнгдон / Sue Ane Langdon ... Eulalie Chandler
Ларри Гейтс / Larry Gates ... Cardinal
Майк Келлин / Mike Kellin... Clifford Thompson

Описание: Получив самую высокую оценку на экзамене в школу офицеров, Фердинанд Демара не был принят из-за отсутствия диплома о среднем образовании. Ловкий мошенник с детства, он подделывает документы и начинает жить чужой жизнью.
Фильм основан на одноименной биографии Роберта Крайтона, вышедшей в 1959 году.

Архивы созданы RAR-архиватором с добавлением 3% на восстановление и снабжены sfv-проверочником.
Просьба к первому скачавшему отписаться о сохранности архивов на источнике раздачи.

Раздача рассчитана на 2 месяца. На просмотр линка и скачивание 5 дней!
В случае если вы встали в очередь, а затем отказываетесь от скачивания без объяснения причин, возможен отказ в последующих моих раздачах.



Полное имя :The Great Impostor.1961.DVDRip.avi
Формат : AVI
Формат/Информация : Audio Video Interleave
Размер файла : 1,56 Гбайт
Продолжительность : 1 ч. 47 м.
Общий поток : 2076 Кбит/сек
Программа кодирования : VirtualDubMod 1.5.4.1 (build 2178/release)
Библиотека кодирования : VirtualDubMod build 2178/release

Видео
Идентификатор : 0
Формат : MPEG-4 Visual
Профиль формата : Advanced Simple@L5
Параметр BVOP формата : 2
Параметр QPel формата : Нет
Параметр GMC формата : Без точки перехода
Параметр матрицы формата : Default (H.263)
Идентификатор кодека : XVID
Идентификатор кодека/Подсказка : XviD
Продолжительность : 1 ч. 47 м.
Битрейт : 1678 Кбит/сек
Ширина : 640 пикселей
Высота : 480 пикселей
Соотношение сторон : 4:3
Частота кадров : 25,000 кадров/сек
Цветовое пространство : YUV
Субдискретизация насыщенности : 4:2:0
Битовая глубина : 8 бит
Тип развёртки : Прогрессивная
Метод сжатия : С потерями
Бит/(Пиксели*Кадры) : 0.218
Размер потока : 1,26 Гбайт (81%)
Библиотека кодирования : XviD 1.1.2 (UTC 2006-11-01)

Аудио #1
Идентификатор : 1
Формат : AC-3
Формат/Информация : Audio Coding 3
Расширение режима : CM (complete main)
Параметр Endianness формата : Big
Идентификатор кодека : 2000
Продолжительность : 1 ч. 47 м.
Вид битрейта : Постоянный
Битрейт : 192 Кбит/сек
Каналы : 2 канала
Расположение каналов : Front: L R
Частота : 48,0 КГц
Битовая глубина : 16 бит
Метод сжатия : С потерями
Размер потока : 148 Мбайт (9%)
Выравнивание : Разделение по промежуткам
Продолжительность промежутка : 40 мс. (1,00 видеокадр)
Время предзагрузки промежутка : 500 мс.

Аудио #2
Идентификатор : 2
Формат : AC-3
Формат/Информация : Audio Coding 3
Расширение режима : CM (complete main)
Параметр Endianness формата : Big
Идентификатор кодека : 2000
Продолжительность : 1 ч. 47 м.
Вид битрейта : Постоянный
Битрейт : 192 Кбит/сек
Каналы : 2 канала
Расположение каналов : Front: L R
Частота : 48,0 КГц
Битовая глубина : 16 бит
Метод сжатия : С потерями
Размер потока : 148 Мбайт (9%)
Выравнивание : Разделение по промежуткам
Продолжительность промежутка : 40 мс. (1,00 видеокадр)
Время предзагрузки промежутка : 500 мс.




Это сообщение отредактировал surzhoks - 17.10.2019 - 19:59


Alpinist
№2 Отправлено: 17.10.2019 - 22:13


Завсегдатай

Группа: Форумчане
Регистрация: 18.08.2008
Сообщений: 365
Обитает:
Последний раз был:
вчера в 17:18




Архивы в порядке. Всё скачалось и собралось. Спасибо.
Top
pushistiy
№3 Отправлено: 18.10.2019 - 11:06


Живёт здесь

Группа: Потребители
Регистрация: 8.12.2013
Сообщений: 1051
Последний раз был:
4.11.2019 - 13:51




Думается, что здесь не хватает Джека Леммона - вот это та ещё "сладкая парочка" ! gy.gif
Top
1 человек просматривает эту тему (1 гость)
« Предыдущая тема | Зарубежные фильмы | Следующая тема »


 



[Script Execution time: 0,0537]   [23 queries used]   [GZIP enabled]