Заходят многие - остаются лучшие!
Здравствуйте Гость ( Вход | Регистрация ) Выслать повторно письмо для активации
Вход
Ваше имя Пароль Забыли пароль?
Запомнить Вас?
Войти скрытым?



Новые сообщения раздела  

 

 Будда, пчелы и королева гигантских шершней / BBC: The Natural World. Buddha Bees and the Giant Hornet Queen (2006), BBC: The Natural World
bornik
  №1 Отправлено: 16.03.2017 - 08:34


Воспоминания - это богатства старости.

Группа: Модераторы
Регистрация: 18.08.2008
Сообщений: 968
Обитает:
Последний раз был:
вчера в 20:10




Будда, пчелы и королева гигантских шершней / BBC: The Natural World. Buddha Bees and the Giant H



«Будда, пчелы и королева гигантских шершней» - пчёлы против гигантских шершней! Давид против Голиафа! Две империи сражаются между собой за превосходство.

Название: Будда, пчелы и королева гигантских шершней
Оригинальное название: Buddha Bees and the Giant Hornet Queen
Год выпуска: 2006
Жанр: Документальный, природа, фауна, флора
Выпущено: Выпущено: Великобритания, BBC
Продолжительность: 00:49:00
Субтитры: Русские (мои)

Режиссёр: Джеймс Ханиборн / James Honeyborne

Описание: Весной в Японии на острове Хонсю после зимней спячки просыпается королева гигантских шершней - самая большая оса на планете.Только она способна создать могучую империю крылатых убийц, которые будут наводить страх на окружающих. Гигантские шершни (длина отдельных особей превышает 5 сантиметров) вооружены острыми, как бритва челюстями, толстой броней и смертельно опасным жалом. Эти монстры убивают и разрушают все на своем пути. Под силу ли кому-нибудь остановить их нашествие?








General
Complete name : C:\DVD documental fimls\Будда, пчелы и королева гигантских шершней\Будда, пчелы и королева гигантских шершней (2006).avi
Format : AVI
Format/Info : Audio Video Interleave
File size : 772 MiB
Duration : 49mn 0s
Overall bit rate : 2 204 Kbps
Writing application : FairUse Wizard - http://fairusewizard.com
Writing library : VirtualDub build 35491/release

Video
ID : 0
Format : MPEG-4 Visual
Format profile : Advanced Simple@L5
Format settings, BVOP : 2
Format settings, QPel : No
Format settings, GMC : No warppoints
Format settings, Matrix : Default (H.263)
Muxing mode : Packed bitstream
Codec ID : XVID
Codec ID/Hint : XviD
Duration : 49mn 0s
Bit rate : 2 002 Kbps
Width : 720 pixels
Height : 400 pixels
Display aspect ratio : 16:9
Frame rate : 25.000 fps
Color space : YUV
Chroma subsampling : 4:2:0
Bit depth : 8 bits
Scan type : Progressive
Compression mode : Lossy
Bits/(Pixel*Frame) : 0.278
Stream size : 702 MiB (91%)
Writing library : XviD 65

Audio
ID : 1
Format : AC-3
Format/Info : Audio Coding 3
Mode extension : CM (complete main)
Codec ID : 2000
Duration : 49mn 0s
Bit rate mode : Constant
Bit rate : 192 Kbps
Channel(s) : 2 channels
Channel positions : Front: L R
Sampling rate : 48.0 KHz
Bit depth : 16 bits
Compression mode : Lossy
Stream size : 67.3 MiB (9%)
Alignment : Split accross interleaves
Interleave, duration : 40 ms (1.00 video frame)
Interleave, preload duration : 500 ms


=================================

Исходником послужил релиз DVD5, найденный на просторах инета!

Архивы созданы RAR-архиватором с добавлением 3% на восстановление и снабжены sfv-проверочником.
Просьба к первому скачавшему отписаться о сохранности архивов на источнике раздачи.


ПРИЯТНОГО ВСЕМ ПРОСМОТРА !!!




--------------------
Безоблачная старость – это миф,
Поскольку наша память – ширь морская,
И к ночи начинается прилив,
Со дна обломки прошлого таская.
Игорь Губерман

Скрыть подпись


sobinov
№2 Отправлено: 16.03.2017 - 13:52


Живёт здесь

Группа: Потребители
Регистрация: 18.07.2009
Сообщений: 3265
Обитает:
Последний раз был:
вчера в 13:31




Архивы в порядке. Спасибо!
Top
bornik
№3 Отправлено: 16.03.2017 - 13:59


Воспоминания - это богатства старости.

Группа: Модераторы
Регистрация: 18.08.2008
Сообщений: 968
Обитает:
Последний раз был:
вчера в 20:10




Цитата
( sobinov @ 16.03.2017 - 13:52)
Архивы в порядке. Спасибо!

И Вам, sobinov, спасибо за добрую весть. happy_fly.gif


--------------------
Безоблачная старость – это миф,
Поскольку наша память – ширь морская,
И к ночи начинается прилив,
Со дна обломки прошлого таская.
Игорь Губерман

Скрыть подпись
Top
grival406
№4 Отправлено: 16.03.2017 - 19:06


Старожил

Группа: Потребители
Регистрация: 3.03.2016
Сообщений: 931
Обитает:
Последний раз был:
22.11.2017 - 10:46




СПАСИБО! happy_fly.gif


--------------------
Я знаю только одного тирана, и это тихий голос совести.
Махатма Ганди

Скрыть подпись
Top
bornik
№5 Отправлено: 16.03.2017 - 19:58


Воспоминания - это богатства старости.

Группа: Модераторы
Регистрация: 18.08.2008
Сообщений: 968
Обитает:
Последний раз был:
вчера в 20:10




Цитата
( grival406 @ 16.03.2017 - 19:06)
СПАСИБО! happy_fly.gif

Пожалуйста.


--------------------
Безоблачная старость – это миф,
Поскольку наша память – ширь морская,
И к ночи начинается прилив,
Со дна обломки прошлого таская.
Игорь Губерман

Скрыть подпись
Top
1 человек просматривает эту тему (1 гость)
« Предыдущая тема | Мир вокруг нас | Следующая тема »


 



[Script Execution time: 0,0352]   [23 queries used]   [GZIP enabled]