Заходят многие - остаются лучшие!
Здравствуйте Гость ( Вход | Регистрация ) Выслать повторно письмо для активации
Вход
Ваше имя Пароль Забыли пароль?
Запомнить Вас?
Войти скрытым?



 Правила раздела Новые сообщения раздела  


 

 Гонки по вертикали [3 серии] (1983), Старое советское кино, экранизация
bornik
  №1 Отправлено: 22.10.2016 - 07:16


Воспоминания - это богатства старости.

Группа: Модераторы
Регистрация: 18.08.2008
Сообщений: 966
Обитает:
Последний раз был:
cегодня в 10:39




Гонки по вертикали [3 серии]



Предыдущая раздача 09.03.2007 г.
Предыдущая раздача 01.08.2011 г.

«Гонки по вертикали» - трёхсерийный советский детективный фильм 1982 года, снятый режиссёром Александром Муратовым по одноимённой повести братьев Вайнеров.

Год выпуска: 1983
Жанр: Детектив, криминал, мелодрама, экранизация
Выпущено: СССР, Киностудия им. А. Довженко по заказу Гостелерадио
Продолжительность: 03:17:42 (01:03:46 + 01:06:10 + 01:07:46)
Премьера (СССР): 05 апреля 1983 года (ТВ)

Режиссёр: Александр Муратов

В ролях:
Андрей Мягков … Станислав Тихонов, следователь
Валентин Гафт … Лёха Дедушкин, вор-рецидивист по кличке «Батон»
Владимир Сальников … Александр Савельев, помощник Тихонова (озвучивает Александр Рыжков)
Николай Засухин … Владимир Иванович Шарапов, начальник Тихонова
Галина Польских … Зося, подруга «Батона»
Ирина Бразговка … Людмила Михайловна Рознина, работник архива
Елена Капица … Лена, бывшая возлюбленная Тихонова
Станислав Чекан … капитан милиции, дежурный офицер КПЗ
Вячеслав Жолобов … Игорь Иванов, администратор «Гонок по вертикали»
Валерий Дуров … фалерист
Ираида Строумова … директор архива (озвучивает Евгения Ханаева)
Александр Валькович … Александр Михайлович, сотрудник архива
Зинаида Дехтярёва … мать Тихонова (озвучивает Евгения Уралова)
Виктор Мирошниченко … Бакума, таксист (озвучивает Вадим Захарченко)
Капитолина Ильенко … Елизавета Генриховна фон Дитц (Бойко)
Василий Корзун … Олег Николаевич Лебедев, начальник МВД (озвучивает Николай Граббе)
Борис Битюков … «Шаман»
Владимир Мишаков … живущий в комнате Сытникова (озвучивает Роман Филиппов)
Эмилия Сердюк … эпизод
Ирина Стерлядкина … эпизод
Владимир Дружников … Алексей Юрьевич Обнорский, хирург
Нинель Мышкова … Валентина, жена Обнорского
Владимир Коваль … синьор Костелли
Валерий Носик … служащий аэропорта, бывший сообщник «Батона»
Дмитрий Орловский … профессор Сергиевский
Сергей Пономаренко … Коломиец
Елена Костина … сотрудница аэропорта
Ерванд Арзуманян … эпизод

Сценарист: Аркадий Вайнер, Георгий Вайнер
Оператор: Александр Яновский
Композитор: Евгений (Еужен) Дога
Художник: Михаил Раковский

Описание: Следователь Станислав Тихонов поймал вора-рецидивиста Алексея Дедушкина по кличке Батон с чужим чемоданом, в котором находился редкий и ценный орден Андрея Первозванного, принадлежавший когда-то, как было выяснено позже, барону фон Дицу. Чемодан явно был собственностью иностранца, но владелец о пропаже в милицию не заявил, на что наверняка были свои причины. Тихонов и его помощник Саша были вынуждены отпустить Батона. Обаятельный вор, поселившийся у старой зазнобы , снова взялся за работу. Он обокрал по объявлению о покупке дачи квартиру генерала, взяв по сберкнижке на предъявителя крупную сумму денег, а в самой квартире — ценные вещи и револьвер с патронами. Ночью обокрал меховой отдел магазина, занялся уже совсем не своим делом — ведь он всегда был вором, промышляющим на вокзалах и в поездах. А следователь тем временем продолжал искать владельца чемодана и нашел господина Кастелли, "застукав" его при покупке антикварных ценностей. Тому пришлось написать заявление о пропавшем чемодане, теперь Батона ждал приличный срок заключения. Тихонов пообещал ему во время допросов, что посадит. Загнанный в угол Батон зарядил револьвер...


• Начальник Тихонова, которого в фильме называют просто Владимир Иванович (его играет Николай Засухин), — дослужившийся до звания подполковника Володя Шарапов, главный герой другого популярного произведения братьев Вайнеров «Эра милосердия». В книге его фамилия называется прямо, в фильме — ни разу не упоминается. Аналогичная ситуация наблюдается и в другом фильме про Тихонова — «Визит к Минотавру», только в нём роль начальника Тихонова исполнял Владимир Самойлов.
• Упоминаемый в книге и фильме поезд «Дунай-экспресс», отправляющийся «из Стамбула в Унгены», в реальности следовал по маршруту Москва — София и никогда не заезжал в Стамбул.













General
Complete name : C:\Cinema\GonPoVertik\Гонки по вертикали 1 (1983) DVDRip.avi
Format : AVI
Format/Info : Audio Video Interleave
File size : 1.16 GiB
Duration : 1h 3mn
Overall bit rate : 2 597 Kbps
Writing library : VirtualDub build 35491/release

Video
ID : 0
Format : MPEG-4 Visual
Format profile : Advanced Simple@L5
Format settings, BVOP : 2
Format settings, QPel : No
Format settings, GMC : No warppoints
Format settings, Matrix : Default (H.263)
Muxing mode : Packed bitstream
Codec ID : XVID
Codec ID/Hint : XviD
Duration : 1h 3mn
Bit rate : 2 203 Kbps
Width : 720 pixels
Height : 544 pixels
Display aspect ratio : 4:3
Frame rate : 25.000 fps
Color space : YUV
Chroma subsampling : 4:2:0
Bit depth : 8 bits
Scan type : Progressive
Compression mode : Lossy
Bits/(Pixel*Frame) : 0.225
Stream size : 1 005 MiB (85%)
Writing library : XviD 65

Audio
ID : 1
Format : AC-3
Format/Info : Audio Coding 3
Mode extension : CM (complete main)
Codec ID : 2000
Duration : 1h 3mn
Bit rate mode : Constant
Bit rate : 384 Kbps
Channel(s) : 6 channels
Channel positions : Front: L C R, Side: L R, LFE
Sampling rate : 48.0 KHz
Bit depth : 16 bits
Compression mode : Lossy
Stream size : 175 MiB (15%)
Alignment : Aligned on interleaves
Interleave, duration : 40 ms (1.00 video frame)
Interleave, preload duration : 512 ms

=================================








General
Complete name : C:\Cinema\GonPoVertik\Гонки по вертикали 2 (1983) DVDRip.avi
Format : AVI
Format/Info : Audio Video Interleave
File size : 1.20 GiB
Duration : 1h 6mn
Overall bit rate : 2 596 Kbps
Writing library : VirtualDub build 35491/release

Video
ID : 0
Format : MPEG-4 Visual
Format profile : Advanced Simple@L5
Format settings, BVOP : 2
Format settings, QPel : No
Format settings, GMC : No warppoints
Format settings, Matrix : Default (H.263)
Muxing mode : Packed bitstream
Codec ID : XVID
Codec ID/Hint : XviD
Duration : 1h 6mn
Bit rate : 2 202 Kbps
Width : 720 pixels
Height : 544 pixels
Display aspect ratio : 4:3
Frame rate : 25.000 fps
Color space : YUV
Chroma subsampling : 4:2:0
Bit depth : 8 bits
Scan type : Progressive
Compression mode : Lossy
Bits/(Pixel*Frame) : 0.225
Stream size : 1.02 GiB (85%)
Writing library : XviD 65

Audio
ID : 1
Format : AC-3
Format/Info : Audio Coding 3
Mode extension : CM (complete main)
Codec ID : 2000
Duration : 1h 6mn
Bit rate mode : Constant
Bit rate : 384 Kbps
Channel(s) : 6 channels
Channel positions : Front: L C R, Side: L R, LFE
Sampling rate : 48.0 KHz
Bit depth : 16 bits
Compression mode : Lossy
Stream size : 182 MiB (15%)
Alignment : Aligned on interleaves
Interleave, duration : 40 ms (1.00 video frame)
Interleave, preload duration : 512 ms

=================================








General
Complete name : C:\Cinema\GonPoVertik\Гонки по вертикали 3 (1983) DVDRip.avi.avi
Format : AVI
Format/Info : Audio Video Interleave
File size : 1.23 GiB
Duration : 1h 7mn
Overall bit rate : 2 596 Kbps
Writing library : VirtualDub build 35491/release

Video
ID : 0
Format : MPEG-4 Visual
Format profile : Advanced Simple@L5
Format settings, BVOP : 2
Format settings, QPel : No
Format settings, GMC : No warppoints
Format settings, Matrix : Default (H.263)
Muxing mode : Packed bitstream
Codec ID : XVID
Codec ID/Hint : XviD
Duration : 1h 7mn
Bit rate : 2 203 Kbps
Width : 720 pixels
Height : 544 pixels
Display aspect ratio : 4:3
Frame rate : 25.000 fps
Color space : YUV
Chroma subsampling : 4:2:0
Bit depth : 8 bits
Scan type : Progressive
Compression mode : Lossy
Bits/(Pixel*Frame) : 0.225
Stream size : 1.04 GiB (85%)
Writing library : XviD 65

Audio
ID : 1
Format : AC-3
Format/Info : Audio Coding 3
Mode extension : CM (complete main)
Codec ID : 2000
Duration : 1h 7mn
Bit rate mode : Constant
Bit rate : 384 Kbps
Channel(s) : 6 channels
Channel positions : Front: L C R, Side: L R, LFE
Sampling rate : 48.0 KHz
Bit depth : 16 bits
Compression mode : Lossy
Stream size : 186 MiB (15%)
Alignment : Aligned on interleaves
Interleave, duration : 40 ms (1.00 video frame)
Interleave, preload duration : 512 ms

=================================

Исходником послужил релиз DVD9 от mp5master, взятый с Рутрекера, за что ему БОЛЬШОЕ СПАСИБО!



Архивы созданы RAR-архиватором с добавлением 3% на восстановление и снабжены sfv-проверочником.
Просьба к первому скачавшему отписаться о сохранности архивов на источнике раздачи.

Раздача рассчитана на месяц.


ПРИЯТНОГО ВСЕМ ПРОСМОТРА !!!


Другое участие: mp5master – предоставление исходной записи




--------------------
Безоблачная старость – это миф,
Поскольку наша память – ширь морская,
И к ночи начинается прилив,
Со дна обломки прошлого таская.
Игорь Губерман

Скрыть подпись


EvgenySV
№2 Отправлено: 22.10.2016 - 09:47


Посетитель

Группа: Потребители
Регистрация: 30.12.2015
Сообщений: 187
Обитает:
Последний раз был:
cегодня в 12:11




Спасибо, архивы в порядке.
Top
bornik
№3 Отправлено: 22.10.2016 - 20:53


Воспоминания - это богатства старости.

Группа: Модераторы
Регистрация: 18.08.2008
Сообщений: 966
Обитает:
Последний раз был:
cегодня в 10:39




Цитата
( EvgenySV @ 22.10.2016 - 09:47)
Спасибо, архивы в порядке.

И Вам, EvgenySV, спасибо за добрую весть. happy_fly.gif


--------------------
Безоблачная старость – это миф,
Поскольку наша память – ширь морская,
И к ночи начинается прилив,
Со дна обломки прошлого таская.
Игорь Губерман

Скрыть подпись
Top
grival406
№4 Отправлено: 27.10.2016 - 18:53


Старожил

Группа: Потребители
Регистрация: 3.03.2016
Сообщений: 927
Обитает:
Последний раз был:
позавчера в 18:13




Огромное спасибо!!! happy_fly.gif


--------------------
Я знаю только одного тирана, и это тихий голос совести.
Махатма Ганди

Скрыть подпись
Top
bornik
№5 Отправлено: 2.11.2016 - 12:51


Воспоминания - это богатства старости.

Группа: Модераторы
Регистрация: 18.08.2008
Сообщений: 966
Обитает:
Последний раз был:
cегодня в 10:39




Цитата
( grival406 @ 27.10.2016 - 18:53)
Огромное спасибо!!! happy_fly.gif

Пожалуйста. wink2.gif


--------------------
Безоблачная старость – это миф,
Поскольку наша память – ширь морская,
И к ночи начинается прилив,
Со дна обломки прошлого таская.
Игорь Губерман

Скрыть подпись
Top
bornik
№6 Отправлено: 11.01.2017 - 19:37


Воспоминания - это богатства старости.

Группа: Модераторы
Регистрация: 18.08.2008
Сообщений: 966
Обитает:
Последний раз был:
cегодня в 10:39




Всем спасибо.
Очередь закрыта. Если есть желающие - пишите в ПМ. wink2.gif


--------------------
Безоблачная старость – это миф,
Поскольку наша память – ширь морская,
И к ночи начинается прилив,
Со дна обломки прошлого таская.
Игорь Губерман

Скрыть подпись
Top
1 человек просматривает эту тему (1 гость)
« Предыдущая тема | Отечественное кино | Следующая тема »


 



[Script Execution time: 0,0249]   [23 queries used]   [GZIP enabled]