Заходят многие - остаются лучшие!
Здравствуйте Гость ( Вход | Регистрация ) Выслать повторно письмо для активации
Вход
Ваше имя Пароль Забыли пароль?
Запомнить Вас?
Войти скрытым?



 Правила раздела Новые сообщения раздела  


 

 Злоумышленники / Les scélérats (1960), Мишель Морган, Робер Оссейн / драма
surzhoks
  №1 Отправлено: 4.08.2016 - 19:22


Старожил

Группа: Аксакалы
Регистрация: 17.03.2008
Сообщений: 965
Обитает:
Последний раз был:
14.09.2017 - 19:11




Злоумышленники / Les scélérats


Страна: Франция
Жанр: драма
Год выпуска: 1960
Продолжительность: 01:29:05
Режиссер: Робер Оссейн / Robert Hossein
Композитор: Андре Оссейн / André Hossein
В ролях:
Мишель Морган / Michèle Morgan ... Thelma Rooland
Робер Оссейн / Robert Hossein ... Jess Rooland
Перретт Прадье / Perrette Pradier ... Louise Martin
Оливье Юссно / Olivier Hussenot ... Arthur Martin
Жаклин Моран / Jacqueline Morane ... Adeline Martin
Пол Бисцилиа / Paul Bisciglia
Барбара Брандт / Barbara Brandt
Иван Доминик / Ivan Dominique
Жаклин Фонтел / Jacqueline Fontel
Кэди Мюллер / Cady Muller
Роланд Монк / Roland Monk
Кейт Ноэль / Kate Noelle
Дональд О’Брайэн / Donald O'Brien
Робер Порт / Robert Porte
Пьер Пассел / Pierre Roussel
Алис Саприч / Alice Sapritch ... L'invitée qui complimente Thelma

Описание: Семейная пара приезжает во Францию из Америки. Луиза и её родители заинтригованы этими новыми соседями — роскошными и загадочными, красивой грустной парой. Джесс и Тельма нанимают Луизу, которая проживает в доме напротив, в горничные. Вскоре девушка понимает, что эта крайняя усталость и меланхолия пары скрывают глубокий драматизм. Тут-то всё и начинается...
Экранизация романа Фредерика Дара.
Предыдущая публикация в разделе "С миру по нитке" ( без голосового перевода) в качестве TVRip была здесь .
Доп. информация:
Огромное спасибо всем причастным к релизу:
рип - Магда,
перевод фильма субтитрами - sekassir,
озвучивание фильма (по русским субтитрам) - Stalk (Никита Кирдин),
работа со звуком и реавторинг исходного DVD- rjhlb777,
финансовая поддержка озвучивания фильма:
Магда, Lafajet, jasenka, елена 22, yanaelisa, Ugo927, voostorg, HippopotamusIV, Simpun, old76, cementit, борюська, mumzik69, Patsy+, Лямдазонд


Архивы созданы RAR-архиватором с добавлением 3% на восстановление и снабжены sfv-проверочником. Раздача содержит русские субтитры.
Просьба к первому скачавшему отписаться о сохранности архивов на источнике раздачи.

Раздача рассчитана на 2 месяца. На просмотр линка и скачивание 5 дней!
В случае если вы встали в очередь, а затем отказываетесь от скачивания без объяснения причин, возможен отказ в последующих моих раздачах.



Полное имя :Les Scelerats.1960.DVDRip.avi
Формат : AVI
Формат/Информация : Audio Video Interleave
Размер файла : 1,58 Гбайт
Продолжительность : 1 ч. 29 м.
Общий поток : 2535 Кбит/сек
Программа кодирования : VirtualDubMod 1.5.4.1 (build 2178/release)
Библиотека кодирования : VirtualDubMod build 2178/release

Видео
Идентификатор : 0
Формат : MPEG-4 Visual
Профиль формата : Advanced Simple@L5
Параметр BVOP формата : 2
Параметр QPel формата : Нет
Параметр GMC формата : Без точки перехода
Параметр матрицы формата : Default (H.263)
Идентификатор кодека : DX50
Идентификатор кодека/Подсказка : DivX 5
Продолжительность : 1 ч. 29 м.
Битрейт : 2137 Кбит/сек
Ширина : 688 пикселей
Высота : 464 пикселя
Соотношение сторон : 3:2
Частота кадров : 25,000 кадров/сек
Цветовое пространство : YUV
Субдискретизация насыщенности : 4:2:0
Битовая глубина : 8 бит
Тип развёртки : Прогрессивная
Метод сжатия : С потерями
Бит/(Пиксели*Кадры) : 0.268
Размер потока : 1,33 Гбайт (84%)
Библиотека кодирования : XviD 73

Аудио #1
Идентификатор : 1
Формат : AC-3
Формат/Информация : Audio Coding 3
Расширение режима : CM (complete main)
Параметр Endianness формата : Big
Идентификатор кодека : 2000
Продолжительность : 1 ч. 29 м.
Вид битрейта : Постоянный
Битрейт : 192 Кбит/сек
Каналы : 2 канала
Расположение каналов : Front: L R
Частота : 48,0 КГц
Битовая глубина : 16 бит
Метод сжатия : С потерями
Размер потока : 122 Мбайт (8%)
Выравнивание : Разделение по промежуткам
Продолжительность промежутка : 40 мс. (1,00 видеокадр)
Время предзагрузки промежутка : 500 мс.

Аудио #2
Идентификатор : 2
Формат : AC-3
Формат/Информация : Audio Coding 3
Расширение режима : CM (complete main)
Параметр Endianness формата : Big
Идентификатор кодека : 2000
Продолжительность : 1 ч. 29 м.
Вид битрейта : Постоянный
Битрейт : 192 Кбит/сек
Каналы : 2 канала
Расположение каналов : Front: L R
Частота : 48,0 КГц
Битовая глубина : 16 бит
Метод сжатия : С потерями
Размер потока : 122 Мбайт (8%)
Выравнивание : Разделение по промежуткам
Продолжительность промежутка : 40 мс. (1,00 видеокадр)
Время предзагрузки промежутка : 500 мс.




--------------------
Искусство откладывать деньги сводится к умению сказать “нет” потребительскому обществу.

Скрыть подпись


SALTAN
№2 Отправлено: 4.08.2016 - 20:41


Herr

Группа: Аксакалы
Регистрация: 19.01.2006
Сообщений: 9780
Последний раз был:
вчера в 21:46




Архивы в порядке. Спасибо!
Top
wider2
№3 Отправлено: 5.08.2016 - 06:21


Старожил

Группа: Потребители
Регистрация: 17.10.2006
Сообщений: 987
Обитает:
Последний раз был:
вчера в 14:51




Помню, помню
наш человек - Гусейнов
все 60е годы снимал фильмы как режиссер, ну и как актер участвовал
кое-что даже получалось и поднималось над средним уровнем
потом в 70е все это бросил и занялся театром
Top
1 человек просматривает эту тему (1 гость)
« Предыдущая тема | Зарубежные фильмы | Следующая тема »


 



[Script Execution time: 0,0394]   [23 queries used]   [GZIP enabled]