Заходят многие - остаются лучшие!
Здравствуйте Гость ( Вход | Регистрация ) Выслать повторно письмо для активации
Вход
Ваше имя Пароль Забыли пароль?
Запомнить Вас?
Войти скрытым?



 Правила раздела Новые сообщения раздела  


 

 Эта женщина опасна / This Woman Is Dangerous (1952), Джоан Кроуфорд, Дэннис Морган / драма
surzhoks
  №1 Отправлено: 6.08.2016 - 10:08


Старожил

Группа: Аксакалы
Регистрация: 17.03.2008
Сообщений: 965
Обитает:
Последний раз был:
14.09.2017 - 19:11




Эта женщина опасна / This Woman Is Dangerous


Страна: США
Жанр: драма
Год выпуска: 1952
Продолжительность: 01:37:11
Режиссер: Феликс Э. Файст / Felix E. Feist
Композитор: Дэвид Баттолф / David Buttolph
В ролях:
Джоан Кроуфорд / Joan Crawford ... Elizabeth «Beth» Austin
Дэннис Морган / Dennis Morgan ... Dr. Ben Halleck
Дэвид Брайан / David Brian ... Matt Jackson
Ричард Уэбб / Richard Webb ... James A. Franklin
Мари Алдон / Mari Aldon ... Ann Jackson
Филип Кэри / Philip Carey ... Will Jackson
Йен МакДональд / Ian MacDonald ... Joe Grossland, Private Eye
Кэтерин Уоррен / Katherine Warren ... Mrs. Millican, Dr. Halleck's Nurse
Ричард Бартелл / Richard Bartell ... Waiter, в титрах не указан
Глэдис Блейк / Gladys Blake ... Maggie, the Hairdresser, в титрах не указана
Уильям Чэлли / William Challee ... Ned Shaw, в титрах не указан
Джордж Чандлер / George Chandler ... Dr. Bill Ryan, в титрах не указан

Описание: Суровая женщина Бет Остин, возглавляющая криминальный синдикат, узнаёт, что в течение недели полностью потеряет зрение. За помощью она обращается к хирургу Бену Хеллеку, который, возможно, может спасти её от слепоты. Попутно он также заставляет её полностью переменить свой образ жизни.

Доп. информация:
Огромное спасибо всем причастным к релизу:
рип - Магда,
перевод фильма - dhreilly,
озвучивание фильма (по русским субтитрам) - fiendover (Виктор Рутилов),
работа со звуком и реавторинг исходного DVD- rjhlb777,
финансовая поддержка перевода и озвучивания фильма:
Магда, Lafajet, jasenka, елена 22, yanaelisa, voostorg, surzhoks, HippopotamusIV, leoder, and76sss, Patsy+, duum100, GalaUkr, mumzik69, spartakeynoir, BaluBaly

Есть зеркало на яндекс-диск. Русские субтитры находятся в прикрепленном файле.
Архивы созданы RAR-архиватором с добавлением 3% на восстановление и снабжены sfv-проверочником.
Просьба к первому скачавшему отписаться о сохранности архивов на источнике раздачи.

Раздача рассчитана на 2 месяца. На просмотр линка и скачивание 5 дней!
В случае если вы встали в очередь, а затем отказываетесь от скачивания без объяснения причин, возможен отказ в последующих моих раздачах.



Полное имя :This Woman Is Dangerous.DVDRip.avi
Формат : AVI
Формат/Информация : Audio Video Interleave
Размер файла : 1,59 Гбайт
Продолжительность : 1 ч. 37 м.
Общий поток : 2341 Кбит/сек
Программа кодирования : VirtualDubMod 1.5.4.1 (build 2178/release)
Библиотека кодирования : VirtualDubMod build 2178/release

Видео
Идентификатор : 0
Формат : MPEG-4 Visual
Профиль формата : Advanced Simple@L5
Параметр BVOP формата : 2
Параметр QPel формата : Нет
Параметр GMC формата : Без точки перехода
Параметр матрицы формата : Default (H.263)
Идентификатор кодека : DX50
Идентификатор кодека/Подсказка : DivX 5
Продолжительность : 1 ч. 37 м.
Битрейт : 1943 Кбит/сек
Ширина : 640 пикселей
Высота : 480 пикселей
Соотношение сторон : 4:3
Частота кадров : 23,976 кадра/сек
Цветовое пространство : YUV
Субдискретизация насыщенности : 4:2:0
Битовая глубина : 8 бит
Тип развёртки : Прогрессивная
Метод сжатия : С потерями
Бит/(Пиксели*Кадры) : 0.264
Размер потока : 1,32 Гбайт (83%)
Библиотека кодирования : XviD 73

Аудио #1
Идентификатор : 1
Формат : AC-3
Формат/Информация : Audio Coding 3
Расширение режима : CM (complete main)
Параметр Endianness формата : Big
Идентификатор кодека : 2000
Продолжительность : 1 ч. 37 м.
Вид битрейта : Постоянный
Битрейт : 192 Кбит/сек
Каналы : 2 канала
Расположение каналов : Front: L R
Частота : 48,0 КГц
Битовая глубина : 16 бит
Метод сжатия : С потерями
Размер потока : 133 Мбайт (8%)
Выравнивание : Разделение по промежуткам
Продолжительность промежутка : 42 мс. (1,00 видеокадр)
Время предзагрузки промежутка : 500 мс.

Аудио #2
Идентификатор : 2
Формат : AC-3
Формат/Информация : Audio Coding 3
Расширение режима : CM (complete main)
Параметр Endianness формата : Big
Идентификатор кодека : 2000
Продолжительность : 1 ч. 37 м.
Вид битрейта : Постоянный
Битрейт : 192 Кбит/сек
Каналы : 2 канала
Расположение каналов : Front: L R
Частота : 48,0 КГц
Битовая глубина : 16 бит
Метод сжатия : С потерями
Размер потока : 133 Мбайт (8%)
Выравнивание : Разделение по промежуткам
Продолжительность промежутка : 42 мс. (1,00 видеокадр)
Время предзагрузки промежутка : 500 мс.




--------------------
Искусство откладывать деньги сводится к умению сказать “нет” потребительскому обществу.

Скрыть подпись


vjub58
№2 Отправлено: 6.08.2016 - 13:50


Практикующий эсквайр

Группа: Аксакалы
Регистрация: 6.12.2005
Сообщений: 4574
Обитает:
Последний раз был:
18.09.2017 - 09:47




Спасибо, все ОК. (mail.ru) pozdrav_buket.gif
Top
wider2
№3 Отправлено: 6.08.2016 - 18:22


Старожил

Группа: Потребители
Регистрация: 17.10.2006
Сообщений: 987
Обитает:
Последний раз был:
вчера в 14:51




о боже, как все это напоминает мою бывшую
хорошо, что у нее нет проблем со зрением...
и перемен в характере ждать не стоит...
Top
1 человек просматривает эту тему (1 гость)
« Предыдущая тема | Зарубежные фильмы | Следующая тема »


 



[Script Execution time: 0,0287]   [23 queries used]   [GZIP enabled]