Заходят многие - остаются лучшие!
Здравствуйте Гость ( Вход | Регистрация ) Выслать повторно письмо для активации
Вход
Ваше имя Пароль Забыли пароль?
Запомнить Вас?
Войти скрытым?



 Правила раздела Новые сообщения раздела  


 

 Милая Аделин / Sweet Adeline (1934), Айрин Данн / мюзикл, мелодрама
surzhoks
  №1 Отправлено: 11.05.2017 - 18:41


Старожил

Группа: Аксакалы
Регистрация: 17.03.2008
Сообщений: 940
Обитает:
Последний раз был:
cегодня в 10:12




Милая Аделин / Sweet Adeline


Страна: США
Студия: Warner Bros. Pictures
Жанр: мюзикл, мелодрама
Год выпуска: 1934
Продолжительность: 01:27:31
Режиссер: Мервин ЛеРой / Mervyn LeRoy
Композитор: Хайнц Рёмхельд / Heinz Roemheld
В ролях:
Айрин Данн / Irene Dunne ... Adeline Schmidt
Дональд Вудс / Donald Woods ... Sid Barnett
Хью Херберт / Hugh Herbert ... Rupert Rockingham
Нед Спаркс / Ned Sparks ... Dan Herzig
Джозеф Которн / Joseph Cawthorn ... Oscar Schmidt
Уини Шоу / Wini Shaw (в титрах: Winifred Shaw) ... Elysia
Луи Кэлхерн / Louis Calhern ... Major Day
Нидия Вестман / Nydia Westman ... Nellie
Дороти ДаРе / Dorothy Dare ... Dot
Фил Риган / Phil Regan ... Michael
Эдди Акафф / Eddie Acuff ... Undetermined Secondary Role, в титрах не указан
Дон Альварадо / Don Alvarado ... Renaldo, в титрах не указан

Описание: Сид Барнетт - молодой композитор, влюбленный в дочь владельца пивной Аделин Шмидт. Но ее отец Оскар не любит Сида, предпочитая героя испано-американской войны майора Дэя. Поскольку Шмидт безоговорочно против шоу-бизнеса, сестра Аделин Нелли сбегает в Нью-Йорк, надеясь начать карьеру актрисы. Аделин отправляется следом за сестрой. Когда Сид встречает в Нью-Йорке Аделин, он настаивает, что она единственная, кто сможет исполнить песни в сочинённой им новой оперетте. Но эта идея вызывает взрыв бешенства у звезды Бродвея Элисии...

Доп. информация:
Огромное спасибо всем причастным к релизу:
рип - Магда,
перевод фильма - Северный,
озвучивание фильма (по русским субтитрам) - fiendover (Виктор Рутилов),
работа со звуком и реавторинг исходного DVD- AlekceyR76,
финансовая поддержка перевода и озвучивания фильма:
Магда, Lafajet, jasenka, елена 22, yanaelisa, Ugo927, борюська, cementit, GalaUkr, sapog1960, voostorg, leoder, sin58, mumzik69, keg38

Архивы созданы RAR-архиватором с добавлением 3% на восстановление и снабжены sfv-проверочником.
Просьба к первому скачавшему отписаться о сохранности архивов на источнике раздачи.

Раздача рассчитана на 2 месяца. На просмотр линка и скачивание 5 дней!
В случае если вы встали в очередь, а затем отказываетесь от скачивания без объяснения причин, возможен отказ в последующих моих раздачах.



Полное имя :Sweet Adeline.avi
Формат : AVI
Формат/Информация : Audio Video Interleave
Размер файла : 1,46 Гбайт
Продолжительность : 1 ч. 27 м.
Общий поток : 2385 Кбит/сек
Программа кодирования : VirtualDubMod 1.5.10.3 | www.virtualdub-fr.org || (build 2550/release)
Библиотека кодирования : VirtualDubMod build 2550/release

Видео
Идентификатор : 0
Формат : MPEG-4 Visual
Профиль формата : Advanced Simple@L5
Параметр BVOP формата : 2
Параметр QPel формата : Нет
Параметр GMC формата : Без точки перехода
Параметр матрицы формата : Default (H.263)
Идентификатор кодека : DX50
Идентификатор кодека/Подсказка : DivX 5
Продолжительность : 1 ч. 27 м.
Битрейт : 1987 Кбит/сек
Ширина : 640 пикселей
Высота : 480 пикселей
Соотношение сторон : 4:3
Частота кадров : 23,976 кадра/сек
Цветовое пространство : YUV
Субдискретизация насыщенности : 4:2:0
Битовая глубина : 8 бит
Тип развёртки : Прогрессивная
Метод сжатия : С потерями
Бит/(Пиксели*Кадры) : 0.270
Размер потока : 1,21 Гбайт (83%)
Библиотека кодирования : XviD 73

Аудио #1
Идентификатор : 1
Формат : AC-3
Формат/Информация : Audio Coding 3
Расширение режима : CM (complete main)
Параметр Endianness формата : Big
Идентификатор кодека : 2000
Продолжительность : 1 ч. 27 м.
Вид битрейта : Постоянный
Битрейт : 192 Кбит/сек
Каналы : 2 канала
Расположение каналов : Front: L R
Частота : 48,0 КГц
Битовая глубина : 16 бит
Метод сжатия : С потерями
Размер потока : 120 Мбайт (8%)
Выравнивание : Разделение по промежуткам
Продолжительность промежутка : 42 мс. (1,00 видеокадр)
Время предзагрузки промежутка : 500 мс.

Аудио #2
Идентификатор : 2
Формат : AC-3
Формат/Информация : Audio Coding 3
Расширение режима : CM (complete main)
Параметр Endianness формата : Big
Идентификатор кодека : 2000
Продолжительность : 1 ч. 27 м.
Вид битрейта : Постоянный
Битрейт : 192 Кбит/сек
Каналы : 2 канала
Расположение каналов : Front: L R
Частота : 48,0 КГц
Битовая глубина : 16 бит
Метод сжатия : С потерями
Размер потока : 120 Мбайт (8%)
Выравнивание : Разделение по промежуткам
Продолжительность промежутка : 42 мс. (1,00 видеокадр)
Время предзагрузки промежутка : 500 мс.




--------------------
Искусство откладывать деньги сводится к умению сказать “нет” потребительскому обществу.

Скрыть подпись


vjub58
№2 Отправлено: 11.05.2017 - 20:06


Практикующий эсквайр

Группа: Аксакалы
Регистрация: 6.12.2005
Сообщений: 4506
Обитает:
Последний раз был:
cегодня в 15:40




Спасибо, все ОК. pozdrav_buket.gif
Top
1 человек просматривает эту тему (1 гость)
« Предыдущая тема | Зарубежные фильмы | Следующая тема »


 



[Script Execution time: 0,0309]   [23 queries used]   [GZIP enabled]