Заходят многие - остаются лучшие!
Здравствуйте Гость ( Вход | Регистрация ) Выслать повторно письмо для активации
Вход
Ваше имя Пароль Забыли пароль?
Запомнить Вас?
Войти скрытым?



 Первые шаги на "Театральных подмостках" Новые сообщения раздела  


 

 Записки сумасшедшего музыканта (Донецкий КТС ''Жуки'') 2012 WEBRip, спектакль-гротеск по повести Н. В. Гоголя.
sharky
  №1 Отправлено: 7.09.2017 - 04:09


Человек дождя

Группа: Аксакалы
Регистрация: 7.09.2007
Сообщений: 9953
Обитает:
Последний раз был:
cегодня в 09:58




Записки сумасшедшего музыканта (Донецкий КТС ''Жуки'') 2012




Донецкий камерный театр-студия ''Жуки''

Название: Записки сумасшедшего музыканта
Год выхода: 2012
Жанр: спектакль-гротеск
Режиссер: Евгений Чистоклетов
В ролях: Евгений Чистоклетов, Ольга Чистоклетова
О спектакле: Название спектакля состоит из трёх слов: «Записки сумасшедшего музыканта». Это особенно важно для концепции спектакля в целом. Текст повести Н.В. Гоголя слышится как законченное музыкальное произведение. Соответственно, главный персонаж есть источник музыки и поэзии в спектакле, поэтому хочется видеть в гоголевском персонаже не титулярного советника или короля Испании, а, прежде всего, болезненно тонко чувствующего человека. В связи с этим в фантазийный мир героя входит и звучит оригинально исполняемая музыка. Гротеск – союзник Поприщина против смиренничества и обыденности жизни. Персонаж по фамилии Поприщин доказывает себе и другим, что он «живой» и способен буквально «дотянуться» до Луны. Может поэтому он в финале спектакля становится так похож на самого Гоголя.
Выпущено: Украина


General
Complete name : E:\Записки сумасшедшего музыканта (Донецкий КТС ''Жуки'')

2012 WEBRip.avi
Format : AVI
Format/Info : Audio Video Interleave
File size : 1.09 GiB
Duration : 1 h 9 min
Overall bit rate : 2 243 kb/s

Video
ID : 0
Format : MPEG-4 Visual
Format settings, BVOP : 1
Format settings, QPel : No
Format settings, GMC : No warppoints
Format settings, Matrix : Default (H.263)
Codec ID : DX50
Codec ID/Hint : DivX 5
Duration : 1 h 9 min
Bit rate : 2 105 kb/s
Nominal bit rate : 4 854 kb/s
Width : 704 pixels
Height : 528 pixels
Display aspect ratio : 4:3
Frame rate : 25.000 FPS
Color space : YUV
Chroma subsampling : 4:2:0
Bit depth : 8 bits
Scan type : Progressive
Compression mode : Lossy
Bits/(Pixel*Frame) : 0.227
Stream size : 1.02 GiB (94%)
Title : Video
Writing library : DivX 3013

Audio
ID : 1
Format : MPEG Audio
Format version : Version 1
Format profile : Layer 3
Codec ID : 55
Codec ID/Hint : MP3
Duration : 1 h 9 min
Bit rate mode : Constant
Bit rate : 128 kb/s
Channel(s) : 2 channels
Sampling rate : 48.0 kHz
Compression mode : Lossy
Stream size : 63.5 MiB (6%)
Alignment : Split accross interleaves
Interleave, duration : 40 ms (1.00 video frame)
Interleave, preload duratio : 500 ms
Title : Audio






















Раздача рассчитана на две - три недели.

Просьба: первому скачавшему сообщить о состоянии архива.




--------------------

Лень - двигатель прогресса!

Скрыть подпись


Ushkuynik
№2 Отправлено: 7.09.2017 - 11:44


Посетитель

Группа: Потребители
Регистрация: 5.06.2015
Сообщений: 223
Обитает:
Последний раз был:
28.10.2017 - 11:57




Архивы в порядке.
Top
sharky
№3 Отправлено: 7.09.2017 - 11:51


Человек дождя

Группа: Аксакалы
Регистрация: 7.09.2007
Сообщений: 9953
Обитает:
Последний раз был:
cегодня в 09:58




Цитата
( Ushkuynik @ 7.09.2017 - 11:44)
Архивы в порядке.

Спасибо.


--------------------

Лень - двигатель прогресса!

Скрыть подпись
Top
1 человек просматривает эту тему (1 гость)
« Предыдущая тема | Театральные подмостки | Следующая тема »


 



[Script Execution time: 0,0301]   [23 queries used]   [GZIP enabled]