Версия для печати темы
Нажмите сюда для просмотра этой темы в оригинальном формате
Киноклуб "Феникс" > Мир вокруг нас > Клан сурикатов / National Geographic. Clan of the meerkat (2010)


Автор: bornik 20.03.2017 - 20:21
«Клан сурикатов» - бушмены Калахари называют сурикат "маленькими земляными человечками". Но у этих крошек хватает духу бросить вызов пустыне. Удивительная история о семейной взаимовыручке, стойкости и смелости этих чудных созданий.

Название: Клан сурикатов
Оригинальное название: Clan of the meerkat
Год выпуска: 2010
Жанр: Документальный, природа, фауна, флора
Выпущено: (IMAGE: http://fenixclub.com/uploads/59697/img-591618-85e1ba42b6.gif) США, (IMAGE: http://fenixclub.com/uploads/59697/img-591619-ab42e36e3d.jpg) Studio Hamburg Produktion GmbH, National Geographic
Продолжительность: 00:44:59
Субтитры: Русские (мои)

Режиссёр: Дирк Блуменберг / Dirk Blumenberg

Программа озвучена студией "АРК•ТВ"
Текст читает: Игорь Тарадайкин

Описание: Телеканал National Geographic приглашает нас проследовать в очень засушливую пустыню под названием Намиб. Этой пустыне не год и не два, она древняя, довольно не гостеприимная, если кто-то сюда попадет, то ему придется приспосабливаться. Местность довольно суровая, оказавшись здесь, вы поймете, что такое пустыня и как здесь тяжело. Но есть одно маленькое животное, которое может выжить в этой пустыне, потому что оно живет здесь ни одно – их целое племя. Если измерить это млекопитающее в полный рост, то высота составит 30 см. Это млекопитающее называется сурикат. Маленькие стойкие оловянные солдатики, они охраняют свои владения, постоянно в дозоре, постоянно на страже, ведь их существованию угрожают не только хищники, но и наступление сухого сезона. Сурикаты - это настоящая семья, это клан, а клану по плечу любые сложные задачи.

(IMAGE: http://fenixclub.com/uploads/59697/img-615386-6dd075556e.jpg)

http://fenixclub.com/uploads/59697/img-615387-b4b147bc52.jpghttp://fenixclub.com/uploads/59697/img-615388-b4b147bc52.jpghttp://fenixclub.com/uploads/59697/img-615389-b4b147bc52.jpghttp://fenixclub.com/uploads/59697/img-615390-b4b147bc52.jpghttp://fenixclub.com/uploads/59697/img-615391-b4b147bc52.jpg
http://fenixclub.com/uploads/59697/img-615392-b4b147bc52.jpghttp://fenixclub.com/uploads/59697/img-615393-b4b147bc52.jpghttp://fenixclub.com/uploads/59697/img-615394-b4b147bc52.jpghttp://fenixclub.com/uploads/59697/img-615395-b4b147bc52.jpghttp://fenixclub.com/uploads/59697/img-615396-96a3be3cf2.jpg
http://fenixclub.com/uploads/59697/img-615397-96a3be3cf2.jpghttp://fenixclub.com/uploads/59697/img-615398-96a3be3cf2.jpghttp://fenixclub.com/uploads/59697/img-615399-96a3be3cf2.jpghttp://fenixclub.com/uploads/59697/img-615400-96a3be3cf2.jpghttp://fenixclub.com/uploads/59697/img-615401-96a3be3cf2.jpg


General
Complete name : C:\DVD documental fimls\Клан сурикатов\Клан сурикатов (2010).avi
Format : AVI
Format/Info : Audio Video Interleave
File size : 709 MiB
Duration : 44mn 59s
Overall bit rate : 2 205 Kbps
Writing application : VirtualDubMod 1.5.10.2 (build 2540/release)
Writing library : VirtualDubMod build 2540/release

Video
ID : 0
Format : MPEG-4 Visual
Format profile : Advanced Simple@L5
Format settings, BVOP : 2
Format settings, QPel : No
Format settings, GMC : No warppoints
Format settings, Matrix : Default (H.263)
Muxing mode : Packed bitstream
Codec ID : XVID
Codec ID/Hint : XviD
Duration : 44mn 59s
Bit rate : 2 003 Kbps
Width : 720 pixels
Height : 400 pixels
Display aspect ratio : 16:9
Frame rate : 25.000 fps
Color space : YUV
Chroma subsampling : 4:2:0
Bit depth : 8 bits
Scan type : Progressive
Compression mode : Lossy
Bits/(Pixel*Frame) : 0.278
Stream size : 644 MiB (91%)
Writing library : XviD 65

Audio
ID : 1
Format : MPEG Audio
Format version : Version 1
Format profile : Layer 3
Mode : Joint stereo
Mode extension : MS Stereo
Codec ID : 55
Codec ID/Hint : MP3
Duration : 44mn 59s
Bit rate mode : Constant
Bit rate : 192 Kbps
Channel(s) : 2 channels
Sampling rate : 48.0 KHz
Compression mode : Lossy
Stream size : 61.8 MiB (9%)
Alignment : Aligned on interleaves
Interleave, duration : 40 ms (1.00 video frame)
Interleave, preload duration : 504 ms
Writing library : LAME3.98r
Encoding settings : -m j -V 4 -q 3 -lowpass 18.6 -b 192


=================================

Исходником послужил релиз HDTV, найденный на просторах инета!

Архивы созданы RAR-архиватором с добавлением 3% на восстановление и снабжены sfv-проверочником.
Просьба к первому скачавшему отписаться о сохранности архивов на источнике раздачи.


ПРИЯТНОГО ВСЕМ ПРОСМОТРА !!!

Автор: Alevtina 20.03.2017 - 20:42
bornik, все хорошо! Спасибо!!! :zdr:

Автор: bornik 21.03.2017 - 02:37
------------ QUOTE ---------- bornik, все хорошо! Спасибо!!! :zdr: -----------------------------
И Вам, Alevtina, спасибо за добрую весть. :fly:

Автор: grival406 22.03.2017 - 18:08
А Вам, bornik, спасибо за любимый цикл!

Автор: bornik 22.03.2017 - 20:10
------------ QUOTE ---------- А Вам, bornik, спасибо за любимый цикл! -----------------------------
А Вам, grival406, спасибо добрые слова. ;)

Powered by Invision Power Board (http://www.invisionboard.com)
© Invision Power Services (http://www.invisionpower.com)