Заходят многие - остаются лучшие!
Здравствуйте Гость ( Вход | Регистрация ) Выслать повторно письмо для активации
Вход
Ваше имя Пароль Забыли пароль?
Запомнить Вас?
Войти скрытым?



 Правила раздела Новые сообщения раздела  


 

 Бандитская империя / Hoodlum Empire (1952), Брайан Донлеви, Клер Тревор / нуар, драма, криминал
surzhoks
  №1 Отправлено: 2.10.2018 - 17:11


Живёт здесь

Группа: Аксакалы
Регистрация: 17.03.2008
Сообщений: 1100
Обитает:
Последний раз был:
вчера в 20:31




Бандитская империя / Hoodlum Empire


Страна: США
Студия: Republic Pictures (I)
Жанр: фильм-нуар, драма, криминал
Год выпуска: 1952
Продолжительность: 01:38:06
Режиссер: Джозеф Кэйн / Joseph Kane
Композитор: Нэйтан Скотт / Nathan Scott

В ролях:
Брайан Донлеви / Brian Donlevy ... Senator Bill Stephens
Клер Тревор / Claire Trevor ... Connie Williams
Джон Расселл / John Russell ... Joe Gray
Лютер Эдлер / Luther Adler ... Nick Mancani
Форрест Такер / Forrest Tucker ... Charley Pignatalli
Вера Ралстон / Vera Ralston ... Marte Dufour
Джин Локхарт / Gene Lockhart ... Senator Tower
Грант Виттерс / Grant Withers ... Rev. Simon Andrews
Тейлор Холмс / Taylor Holmes ... Benjamin Lawton
Рой Баркрофт / Roy Barcroft ... Morris Draper
Уильям Мерфи / William Murphy ... Pete Dailey
Ричард Джэкел / Richard Jaeckel ... Ted Dawson
Дон Беддоу / Don Beddoe ... Senator Blake
Рой Робертс / Roy Roberts ... Police Chief Tayls
Ричард Бенедикт / Richard Benedict ... Silky Tanner

Описание: В Нью-Йорке Комиссия Конгресса США во главе с сенатором Биллом Стивенсом проводит публичное расследование незаконной деятельности в сфере азартных игр, которое находит широкое освещение в средствах массовой информации. В центре расследования находится преступный синдикат, которым руководит Ник Манкани, который якобы находится за пределами страны и не может дать показания. Правой рукой Ника члены Комиссии считают его племянника Джо Грэя, однако нет никаких свидетельств участия последнего в деятельности синдиката в последние годы...
- По информации Американского института киноискусства, история фильма была написана сценаристом компании Хёрста Бобом Консидайном и была основана на серии разоблачительных статей об организованной преступности в сфере азартных игр, которые он написал для International News Service.
- Согласно материалам «Голливуд репортер» от декабря 1950 года, после серии гангстерских убийств в Лос-Анджелесе кинокомпания Republic быстро направила историю в производство. В той же статье указывалось, что на главную роль представителя правосудия предполагалось пригласить Джозефа Коттена, однако в фильме он так и не появился. Согласно сообщению Los Angeles Express от августа 1951 года и информации «Голливуд репортер» уже после начала производства картины, в ней должен был играть Джордж Рафт, но в итоге он тоже не появился в фильме. Рафт, который был известен своими связями в криминальном мире, в частности, дружбой с нью-йоркскими гангстерами Багси Сигелом и Меиром Лански, по словам журнала TimeOut, «отказался сыграть своего старого дружка».

Доп. информация:
Огромное спасибо всем причастным к релизу:
рип - Магда,
исходный Blu-ray- larisa547 ,
перевод фильма- karlivanovich,
озвучивание фильма (по русским субтитрам)- Матвей Кенс,
работа со звуком и реавторинг DVD- AlekceyR76,
финансовая поддержка перевода и озвучивания фильма:
Магда, Lafajet, jasenka, yanaelisa, STICK24, voostorg, exact, sindzi, Ugo927, борюська, Patsy+, елена 22, HippopotamusIV

Архивы созданы RAR-архиватором с добавлением 3% на восстановление и снабжены sfv-проверочником.
Просьба к первому скачавшему отписаться о сохранности архивов на источнике раздачи.

Раздача рассчитана на 2 месяца. На просмотр линка и скачивание 5 дней!
В случае если вы встали в очередь, а затем отказываетесь от скачивания без объяснения причин, возможен отказ в последующих моих раздачах.



Полное имя :Hoodlum Empire.avi
Формат : AVI
Формат/Информация : Audio Video Interleave
Размер файла : 1,46 Гбайт
Продолжительность : 1 ч. 38 м.
Общий поток : 2131 Кбит/сек
Программа кодирования : VirtualDubMod 1.5.10.3 | www.virtualdub-fr.org || (build 2550/release)
Библиотека кодирования : VirtualDubMod build 2550/release

Видео
Идентификатор : 0
Формат : MPEG-4 Visual
Профиль формата : Advanced Simple@L5
Параметр BVOP формата : 2
Параметр QPel формата : Нет
Параметр GMC формата : Без точки перехода
Параметр матрицы формата : Default (H.263)
Идентификатор кодека : DX50
Идентификатор кодека/Подсказка : DivX 5
Продолжительность : 1 ч. 38 м.
Битрейт : 1733 Кбит/сек
Ширина : 720 пикселей
Высота : 528 пикселей
Соотношение сторон : 4:3
Частота кадров : 23,976 кадра/сек
Цветовое пространство : YUV
Субдискретизация насыщенности : 4:2:0
Битовая глубина : 8 бит
Тип развёртки : Прогрессивная
Метод сжатия : С потерями
Бит/(Пиксели*Кадры) : 0.190
Размер потока : 1,19 Гбайт (81%)
Библиотека кодирования : XviD 73

Аудио #1
Идентификатор : 1
Формат : AC-3
Формат/Информация : Audio Coding 3
Расширение режима : CM (complete main)
Параметр Endianness формата : Big
Идентификатор кодека : 2000
Продолжительность : 1 ч. 38 м.
Вид битрейта : Постоянный
Битрейт : 192 Кбит/сек
Каналы : 1 канал
Расположение каналов : Front: C
Частота : 48,0 КГц
Битовая глубина : 16 бит
Метод сжатия : С потерями
Размер потока : 135 Мбайт (9%)
Выравнивание : Разделение по промежуткам
Продолжительность промежутка : 42 мс. (1,00 видеокадр)
Время предзагрузки промежутка : 500 мс.

Аудио #2
Идентификатор : 2
Формат : AC-3
Формат/Информация : Audio Coding 3
Расширение режима : CM (complete main)
Параметр Endianness формата : Big
Идентификатор кодека : 2000
Продолжительность : 1 ч. 38 м.
Вид битрейта : Постоянный
Битрейт : 192 Кбит/сек
Каналы : 1 канал
Расположение каналов : Front: C
Частота : 48,0 КГц
Битовая глубина : 16 бит
Метод сжатия : С потерями
Размер потока : 135 Мбайт (9%)
Выравнивание : Разделение по промежуткам
Продолжительность промежутка : 42 мс. (1,00 видеокадр)
Время предзагрузки промежутка : 500 мс.




vjub58
№2 Отправлено: 2.10.2018 - 19:02


Практикующий эсквайр

Группа: Аксакалы
Регистрация: 6.12.2005
Сообщений: 4863
Обитает:
Последний раз был:
cегодня в 16:21




Спасибо, все ОК. pozdrav_buket.gif
Top
1 человек просматривает эту тему (1 гость)
« Предыдущая тема | Зарубежные фильмы | Следующая тема »


 



[Script Execution time: 0,0686]   [23 queries used]   [GZIP enabled]