Заходят многие - остаются лучшие!
Здравствуйте Гость ( Вход | Регистрация ) Выслать повторно письмо для активации
Вход
Ваше имя Пароль Забыли пароль?
Запомнить Вас?
Войти скрытым?



 Правила раздела Новые сообщения раздела  


 

 Скорость / Speed (1936), Первая главная роль Джеймса Стюарта.
surzhoks
  №1 Отправлено: 11.05.2018 - 19:22


Живёт здесь

Группа: Аксакалы
Регистрация: 17.03.2008
Сообщений: 1071
Обитает:
Последний раз был:
cегодня в 16:18




Скорость / Speed


Страна: США
Студия: Metro-Goldwyn-Mayer (MGM)
Жанр: драма, мелодрама
Год выпуска: 1936
Продолжительность: 01:10:19
Режиссер: Эдвин Л. Марин / Edwin L. Marin
Композитор: Эдвард Уорд / Edward Ward
В ролях:
Джеймс Стюарт / James Stewart ... Terry Martin
Уэнди Барри / Wendy Barrie ... Jane Mitchell, an alias if Jane Emery
Уна Меркел / Una Merkel ... Josephine «Jo» Sanderson
Уэлдон Хейбёрн / Weldon Heyburn ... Frank Lawson
Тед Хили / Ted Healy ... Clarence Maxmillian «Gadget» Haggerty
Ральф Морган / Ralph Morgan ... Mr. Dean
Патриция Уайлдер / Patricia Wilder ... Fanny Lane, a Secretary
Эрни Александр / Ernie Alexander ... Waiter Telling of Barn Dance, в титрах не указан
Дон Броди / Don Brodie ... Track Official Telling Terry He Qualified, в титрах не указан
Джордж Чандлер / George Chandler ... 'Shorty', Bystander at Barn Dance, в титрах не указан
Джек Клиффорд / Jack Clifford ... Master of Ceremonies, в титрах не указан
Бесс Флауэрс / Bess Flowers ... Extra at Company Dance, в титрах не указана

Описание: Автомеханик Терри и инженер Фрэнк работают в компании «Эмери Моторс». Терри разрабатывает новую модель карбюратора, которая может стать сенсацией, но у него никак не получается заставить устройство работать без оплошностей. Фрэнка назначают помочь Терри в устранении неполадок. Оба они претендуют на внимание Джейн — новой сотрудницы рекламного отдела, заинтересовавшейся изобретением.
- Первая главная роль Джеймса Стюарта.
Доп. информация:
Огромное спасибо всем причастным к релизу:
рип - Магда,
перевод фильма - Сароян,
озвучивание фильма (по русским субтитрам) - fiendover (Виктор Рутилов),
работа со звуком и реавторинг исходного DVD- AlekceyR76,
финансовая поддержка озвучивания фильма: Магда, Lafajet, jasenka, yanaelisa, mumzik69, елена 22, voostorg, surzhoks, Mc-Nabbs, sindzi, борюська, Ugo927, HippopotamusIV, leoder

Архивы созданы RAR-архиватором с добавлением 3% на восстановление и снабжены sfv-проверочником.
Просьба к первому скачавшему отписаться о сохранности архивов на источнике раздачи.

Раздача рассчитана на 2 месяца. На просмотр линка и скачивание 5 дней!
В случае если вы встали в очередь, а затем отказываетесь от скачивания без объяснения причин, возможен отказ в последующих моих раздачах.



Полное имя :Speed.avi
Формат : AVI
Формат/Информация : Audio Video Interleave
Размер файла : 1,37 Гбайт
Продолжительность : 1 ч. 10 м.
Общий поток : 2786 Кбит/сек
Программа кодирования : VirtualDubMod 1.5.10.3 | www.virtualdub-fr.org || (build 2550/release)
Библиотека кодирования : VirtualDubMod build 2550/release
Видео
Идентификатор : 0
Формат : MPEG-4 Visual
Профиль формата : Advanced Simple@L5
Параметр BVOP формата : 2
Параметр QPel формата : Нет
Параметр GMC формата : Без точки перехода
Параметр матрицы формата : Default (H.263)
Идентификатор кодека : DX50
Идентификатор кодека/Подсказка : DivX 5
Продолжительность : 1 ч. 10 м.
Битрейт : 2388 Кбит/сек
Ширина : 640 пикселей
Высота : 480 пикселей
Соотношение сторон : 4:3
Частота кадров : 23,976 кадра/сек
Цветовое пространство : YUV
Субдискретизация насыщенности : 4:2:0
Битовая глубина : 8 бит
Тип развёртки : Прогрессивная
Метод сжатия : С потерями
Бит/(Пиксели*Кадры) : 0.324
Размер потока : 1,17 Гбайт (86%)
Библиотека кодирования : XviD 73

Аудио #1
Идентификатор : 1
Формат : AC-3
Формат/Информация : Audio Coding 3
Расширение режима : CM (complete main)
Параметр Endianness формата : Big
Идентификатор кодека : 2000
Продолжительность : 1 ч. 10 м.
Вид битрейта : Постоянный
Битрейт : 192 Кбит/сек
Каналы : 2 канала
Расположение каналов : Front: L R
Частота : 48,0 КГц
Битовая глубина : 16 бит
Метод сжатия : С потерями
Размер потока : 96,6 Мбайт (7%)
Выравнивание : Разделение по промежуткам
Продолжительность промежутка : 42 мс. (1,00 видеокадр)
Время предзагрузки промежутка : 500 мс.

Аудио #2
Идентификатор : 2
Формат : AC-3
Формат/Информация : Audio Coding 3
Расширение режима : CM (complete main)
Параметр Endianness формата : Big
Идентификатор кодека : 2000
Продолжительность : 1 ч. 10 м.
Вид битрейта : Постоянный
Битрейт : 192 Кбит/сек
Каналы : 2 канала
Расположение каналов : Front: L R
Частота : 48,0 КГц
Битовая глубина : 16 бит
Метод сжатия : С потерями
Размер потока : 96,6 Мбайт (7%)
Выравнивание : Разделение по промежуткам
Продолжительность промежутка : 42 мс. (1,00 видеокадр)
Время предзагрузки промежутка : 500 мс.




vjub58
№2 Отправлено: 11.05.2018 - 20:12


Практикующий эсквайр

Группа: Аксакалы
Регистрация: 6.12.2005
Сообщений: 4801
Обитает:
Последний раз был:
13.09.2018 - 23:27




Спасибо, все ОК. pozdrav_buket.gif
Top
1 человек просматривает эту тему (1 гость)
« Предыдущая тема | Зарубежные фильмы | Следующая тема »


 



[Script Execution time: 0,0517]   [23 queries used]   [GZIP enabled]