Заходят многие - остаются лучшие!
Здравствуйте Гость ( Вход | Регистрация ) Выслать повторно письмо для активации
Вход
Ваше имя Пароль Забыли пароль?
Запомнить Вас?
Войти скрытым?



 Правила раздела Новые сообщения раздела  


 

 Легкая жизнь / Easy Living (1937), Джин Артур, Рэй Милланд / комедия, мелодрама
surzhoks
  №1 Отправлено: 12.10.2018 - 22:20


Живёт здесь

Группа: Аксакалы
Регистрация: 17.03.2008
Сообщений: 1095
Обитает:
Последний раз был:
cегодня в 17:42




Легкая жизнь / Easy Living


Страна: США
Студия: Paramount Pictures
Жанр: комедия, мелодрама
Год выпуска: 1937
Продолжительность: 01:28:24
Режиссер: Митчелл Лейзен / Mitchell Leisen

В ролях:
Джин Артур / Jean Arthur ... Mary Smith
Эдвард Арнольд / Edward Arnold ... J.B. Ball
Рэй Милланд / Ray Milland ... John Ball Jr.
Луи Альберни / Luis Alberni ... Mr. Louis Louis
Мэри Нэш / Mary Nash ... Mrs. Ball
Франклин Пэнгборн / Franklin Pangborn ... Van Buren
Барлоу Борланд / Barlowe Borland ... Mr. Gurney
Уильям Демарест / William Demarest ... Wallace Whistling
Эндрю Томбс / Andrew Tombes ... E.J. Hulgar
Эстер Дэйл / Esther Dale ... Lillian
Харлан Бриггс / Harlan Briggs ... Office Manager
Уильям Б. Дэвидсон / William B. Davidson ... Mr. Hyde
Нора Сесил / Nora Cecil ... Miss Swerf
Роберт Грег / Robert Greig ... Butler

Описание: Богатый финансист Джей Би Болл приходит в ярость узнав что его жена и сын транжирят его состояние, сын на иностранные машины, жена на дорогие меха. Что бы показать кто в доме хозяин, он выкидывает абсолютно новую соболиную шубу своей жены в окно, мимо которого чудесным образом в это же время проходила скромная служащая Мэри Смит. Однако вскоре он понимает, что не так то легко избавиться от столь дорогой и эксклюзивной вещицы.

Доп. информация:
Огромное спасибо всем причастным к релизу:
перевод субтитров - mi6,
редакция перевода, озвучивание фильма- Игорь Клушин (хромолка),
работа со звуком и реавторинг DVD- AlekceyR76

Архивы созданы RAR-архиватором с добавлением 3% на восстановление и снабжены sfv-проверочником.
Просьба к первому скачавшему отписаться о сохранности архивов на источнике раздачи.

Раздача рассчитана на 2 месяца. На просмотр линка и скачивание 5 дней!
В случае если вы встали в очередь, а затем отказываетесь от скачивания без объяснения причин, возможен отказ в последующих моих раздачах.



Полное имя :Easy Living.avi
Формат : AVI
Формат/Информация : Audio Video Interleave
Размер файла : 1,37 Гбайт
Продолжительность : 1 ч. 28 м.
Общий поток : 2221 Кбит/сек
Программа кодирования : VirtualDubMod 1.5.10.3 | www.virtualdub-fr.org || (build 2550/release)
Библиотека кодирования : VirtualDubMod build 2550/release

Видео
Идентификатор : 0
Формат : MPEG-4 Visual
Профиль формата : Advanced Simple@L5
Параметр BVOP формата : 2
Параметр QPel формата : Нет
Параметр GMC формата : Без точки перехода
Параметр матрицы формата : Default (H.263)
Идентификатор кодека : DX50
Идентификатор кодека/Подсказка : DivX 5
Продолжительность : 1 ч. 28 м.
Битрейт : 1823 Кбит/сек
Ширина : 640 пикселей
Высота : 480 пикселей
Соотношение сторон : 4:3
Частота кадров : 23,976 кадра/сек
Цветовое пространство : YUV
Субдискретизация насыщенности : 4:2:0
Битовая глубина : 8 бит
Тип развёртки : Прогрессивная
Метод сжатия : С потерями
Бит/(Пиксели*Кадры) : 0.247
Размер потока : 1,13 Гбайт (82%)
Библиотека кодирования : XviD 73

Аудио #1
Идентификатор : 1
Формат : AC-3
Формат/Информация : Audio Coding 3
Расширение режима : CM (complete main)
Параметр Endianness формата : Big
Идентификатор кодека : 2000
Продолжительность : 1 ч. 28 м.
Вид битрейта : Постоянный
Битрейт : 192 Кбит/сек
Каналы : 2 канала
Расположение каналов : Front: L R
Частота : 48,0 КГц
Битовая глубина : 16 бит
Метод сжатия : С потерями
Размер потока : 121 Мбайт (9%)
Выравнивание : Разделение по промежуткам
Продолжительность промежутка : 42 мс. (1,00 видеокадр)
Время предзагрузки промежутка : 500 мс.

Аудио #2
Идентификатор : 2
Формат : AC-3
Формат/Информация : Audio Coding 3
Расширение режима : CM (complete main)
Параметр Endianness формата : Big
Идентификатор кодека : 2000
Продолжительность : 1 ч. 28 м.
Вид битрейта : Постоянный
Битрейт : 192 Кбит/сек
Каналы : 2 канала
Расположение каналов : Front: L R
Частота : 48,0 КГц
Битовая глубина : 16 бит
Метод сжатия : С потерями
Размер потока : 121 Мбайт (9%)
Выравнивание : Разделение по промежуткам
Продолжительность промежутка : 42 мс. (1,00 видеокадр)
Время предзагрузки промежутка : 500 мс.




Это сообщение отредактировал surzhoks - 12.10.2018 - 22:21


tovarish
№2 Отправлено: 13.10.2018 - 10:41


Завсегдатай

Группа: Потребители
Регистрация: 8.07.2008
Сообщений: 320
Обитает:
Последний раз был:
cегодня в 08:25




ВСё в порядке. Скачалось, собралось, открылось
Top
1 человек просматривает эту тему (1 гость)
« Предыдущая тема | Зарубежные фильмы | Следующая тема »


 



[Script Execution time: 0,0265]   [22 queries used]   [GZIP enabled]