Заходят многие - остаются лучшие!
Здравствуйте Гость ( Вход | Регистрация ) Выслать повторно письмо для активации
Вход
Ваше имя Пароль Забыли пароль?
Запомнить Вас?
Войти скрытым?



Новые сообщения раздела  

 

 Ядовитый плющ с Майклом Джеем Фоксом, имеется руская звуковая дорожка
Mike_Sokolov
№1 Отправлено: 27.10.2016 - 05:52


Гость

Группа: Новички
Регистрация: 8.01.2010
Сообщений: 6
Обитает:
Последний раз был:
4.12.2016 - 06:32




Здравствуйте!
У меня есть кассета с записью с ТВ 90-х годов с фильмом «Ядовитый плющ» (1985, https://www.kinopoisk.ru/film/276145/) с Майклом Джеем Фоксом в главной роли. Я не профессионал. Недавно отдал кассету в оцифровку. Запись видео – плохая. Звук – хороший. Профессиональная многоголоска, Варус-видео. Запись начата почти с начала. Если не ошибаюсь, два разрыва на рекламную паузу. В сети имеется VHS-рип фильма (напимер, здесь: http://blizzardkid.net/category/family-com...85_vhsrip.html), достаточно хорошего качества. Хотелось бы поделиться дорожкой, чтобы кто-нибудь сделал полный рип.


Top
медикус
№2 Отправлено: 27.10.2016 - 08:15


Живёт здесь

Группа: Модераторы
Регистрация: 22.07.2008
Сообщений: 8758
Обитает:
Последний раз был:
cегодня в 01:17




На близзардкид ссылки нерабочие. Нашла на трекере nnmclub в таком качестве

Продолжительность: 01:36:55
Качество видео: DVDRip (вероятно, все-таки VHS-рип)
Перевод: Отсутствует
Язык: Английский

Видео: Xvid, 528x400, ~879 kbps
Аудио: MP3, 2 ch, 118 kbps, VBR

Mediainfo:
General
Complete name : D:\Downloads\Poison Ivy (1985).avi
Format : AVI
Format/Info : Audio Video Interleave
File size : 700 MiB
Duration : 1h 36mn
Overall bit rate : 1 010 Kbps
Writing application : VirtualDubMod 1.5.4.1 (build 2178/release)
Writing library : VirtualDubMod build 2178/release

Video
ID : 0
Format : MPEG-4 Visual
Format profile : Advanced Simple@L5
Format settings, BVOP : Yes
Format settings, QPel : No
Format settings, GMC : No warppoints
Format settings, Matrix : Custom
Codec ID : XVID
Codec ID/Hint : XviD
Duration : 1h 36mn
Bit rate : 879 Kbps
Width : 528 pixels
Height : 400 pixels
Display aspect ratio : 4:3
Frame rate : 23.976 fps
Color space : YUV
Chroma subsampling : 4:2:0
Bit depth : 8 bits
Scan type : Progressive
Bits/(Pixel*Frame) : 0.174
Stream size : 610 MiB (87%)
Writing library : XviD 1.2.0.dev47 (UTC 2006-11-01)

Audio
ID : 1
Format : MPEG Audio
Format version : Version 1
Format profile : Layer 3
Mode : Joint stereo
Codec ID : 55
Codec ID/Hint : MP3
Duration : 1h 36mn
Bit rate mode : Variable
Bit rate : 118 Kbps
Nominal bit rate : 128 Kbps
Channel(s) : 2 channels
Sampling rate : 48.0 KHz
Stream size : 81.7 MiB (12%)
Alignment : Aligned on interleaves
Interleave, duration : 24 ms (0.58 video frame)
Interleave, preload duration : 540 ms
Writing library : LAME3.97
Encoding settings : -m j -V 4 -q 2 -lowpass 17 --abr 128

Можете залить дорожку? Хочу попробовать прикрутить yes.gif


--------------------
"Тихо шифером шурша,
Крыша едет не спеша..."
Не помню, кто написал, но дома с этим согласны yes.gif

ПРОЕКТ: В музей - без поводка

Скрыть подпись
Top
Mike_Sokolov
№3 Отправлено: 15.11.2016 - 22:20


Гость

Группа: Новички
Регистрация: 8.01.2010
Сообщений: 6
Обитает:
Последний раз был:
4.12.2016 - 06:32




Здравствуйте, Медикус!
Прошу прощения, не заметил Вашего сообщения. Огромное спасибо, что откликнулись. Вот ссылка на необработанную дорожку: Poison_Ivy_1985_-_Varus
Top
медикус
№4 Отправлено: 16.11.2016 - 14:36


Живёт здесь

Группа: Модераторы
Регистрация: 22.07.2008
Сообщений: 8758
Обитает:
Последний раз был:
cегодня в 01:17




Mike_Sokolov, спасибо, скачала.


--------------------
"Тихо шифером шурша,
Крыша едет не спеша..."
Не помню, кто написал, но дома с этим согласны yes.gif

ПРОЕКТ: В музей - без поводка

Скрыть подпись
Top
Mike_Sokolov
№5 Отправлено: 17.11.2016 - 05:34


Гость

Группа: Новички
Регистрация: 8.01.2010
Сообщений: 6
Обитает:
Последний раз был:
4.12.2016 - 06:32




Здравствуйте, Медикус!
Ребята с http://blizzardkid.net/category/family-com...985_vhsrip.html тоже готовы помочь. Может, скооперируетесь?
Еще немножко добавлю. Дорожка начинается с 0:01:26 видео. Затем на 0:01:52 видео (0:24 дорожки) разрыв, останавливал видик во время рекламной паузы. Конец дорожки на 1:35:27 видео. Итого пропущено 1:55. Мне кажется, что была ещё одна рекламная пауза, но я её сейчас не нашёл.
Успехов.
Top
медикус
№6 Отправлено: 17.11.2016 - 12:09


Живёт здесь

Группа: Модераторы
Регистрация: 22.07.2008
Сообщений: 8758
Обитает:
Последний раз был:
cегодня в 01:17




Mike_Sokolov, спасибо за подсказки! А видеодорожку дать не можете? Пусть плохая, но для ориентации могла бы помочь.


--------------------
"Тихо шифером шурша,
Крыша едет не спеша..."
Не помню, кто написал, но дома с этим согласны yes.gif

ПРОЕКТ: В музей - без поводка

Скрыть подпись
Top
Mike_Sokolov
№7 Отправлено: 19.11.2016 - 06:31


Гость

Группа: Новички
Регистрация: 8.01.2010
Сообщений: 6
Обитает:
Последний раз был:
4.12.2016 - 06:32




Здравствуйте, Медикус!
Вы точно возьмётесь? Размер оцифровки – 3,81 Гб. Загружать придётся по кускам, предполагаю RAR’ом. Только у меня интернет медленный, поэтому заливать буду несколько дней.
Top
медикус
№8 Отправлено: 19.11.2016 - 08:14


Живёт здесь

Группа: Модераторы
Регистрация: 22.07.2008
Сообщений: 8758
Обитает:
Последний раз был:
cегодня в 01:17




Mike_Sokolov, да, я уже попробовала, с ходу не получилось. Начало вроде бы совместила, а дальше пока не вышло... Так что жду yes.gif


--------------------
"Тихо шифером шурша,
Крыша едет не спеша..."
Не помню, кто написал, но дома с этим согласны yes.gif

ПРОЕКТ: В музей - без поводка

Скрыть подпись
Top
Antoff
№9 Отправлено: 19.11.2016 - 14:03


Гость

Группа: Новички
Регистрация: 13.02.2010
Сообщений: 2
Обитает:
Последний раз был:
19.11.2016 - 14:02




Mike_Sokolov

Смотрите личку на рутрекере.
Top
медикус
№10 Отправлено: 21.11.2016 - 22:38


Живёт здесь

Группа: Модераторы
Регистрация: 22.07.2008
Сообщений: 8758
Обитает:
Последний раз был:
cегодня в 01:17






--------------------
"Тихо шифером шурша,
Крыша едет не спеша..."
Не помню, кто написал, но дома с этим согласны yes.gif

ПРОЕКТ: В музей - без поводка

Скрыть подпись
Top
1 человек просматривает эту тему (1 гость)
« Предыдущая тема | Монтажная | Следующая тема »


 



[Script Execution time: 0,0149]   [20 queries used]   [GZIP enabled]