Заходят многие - остаются лучшие!
Здравствуйте Гость ( Вход | Регистрация ) Выслать повторно письмо для активации
Вход
Ваше имя Пароль Забыли пароль?
Запомнить Вас?
Войти скрытым?



Новые сообщения раздела  

 

 Библейский сюжет. Глеб Панфилов. Начало. (2019), Авторская программа Дмитрия Менделеева
Alevtina
  №1 Отправлено: 27.01.2019 - 20:41


Время камни собирать...

Группа: Аксакалы
Регистрация: 12.02.2009
Сообщений: 5727
Обитает:
Последний раз был:
cегодня в 12:55




Библейский сюжет. Глеб Панфилов. Начало.



В рамках проекта -

Год выпуска: 2019

Страна: Россия

Режиссер: Ольга Жукова

Студия: ООО Студия "Неофит"

Автор и ведущий: Дмитрий Менделеев


Обращение великих художников к Библии никогда не заканчивалось только иллюстрацией того или иного сюжета Вечной Книги. Оно всегда предполагало личное осмысление. Художник выбирал библейскую историю, чтобы рассказать о себе, о своем времени, чтобы глубже постичь смысл происходящего.
Язык образов Святого Писания был универсален и понятен для всех. Но теперь для нас этот язык наполовину забыт. Мы уже не можем так ясно, с листа, читать всё, что говорили в своих произведениях художники, поэты, композиторы и писатели прошлого. Мы более опираемся на чувственное восприятие, которое все же является только частью замысла, его внешней стороной. В программе "Библейский сюжет" делается попытка соединить "прекрасного разрозненные части", по-другому взглянуть на всемирно известные произведения искусства, рассказать о судьбе их создателей.


Описание:

"Вначале, – рассказывает автор сценария этого полотна, Евгений Габрилович, – мы пытались рассечь судьбу героини всего лишь одной сценой из жизни Жанны, где церковники требовали от неё отречения. Она повторялась в сценарии несколько раз: Паша её всё время репетировала, готовясь к съёмкам. Потом пришла мысль написать ещё одну сцену, потом ещё несколько, и получилось, что жизнь Паши и Жанны давали при соприкосновении особую вспышку. Возникали иные, более сложные формы отсчета душевных движений. Иная объемность. Иной размах".

Драматургический, философский пласт, открывшийся создателям картины, потряс их. Вольно или невольно прикоснувшись к судьбе Жанны д'Арк – считавшей главным своим призванием вернуть народ к Богу, тогда и англичане будут не страшны! – Глеб Анатольевич и Евгений Иосифович подняли своё творение на евангельскую высоту: "Начало евангелия Иисуса Христа, Сына Божия, как писано у пророков: вот, Я посылаю Ангела Моего пред лицом Твоим, который уготовит путь Твой пред Тобою. Глас вопиющего в пустыне: "Приготовьте путь Господу, прямыми сделайте стези Его". Евангелие от Марка.


Media-info:

Format : AVI
Format/Info : Audio Video Interleave
File size : 352 MiB
Duration : 26mn 11s
Overall bit rate : 1 880 Kbps

Video
ID : 0
Format : MPEG-4 Visual
Format profile : Advanced Simple@L5
Format settings, BVOP : Yes
Format settings, QPel : No
Format settings, GMC : No warppoints
Format settings, Matrix : Default (H.263)
Codec ID : XVID
Codec ID/Hint : XviD
Duration : 26mn 11s
Bit rate : 1 739 Kbps
Width : 720 pixels
Height : 400 pixels
Display aspect ratio : 16:9
Frame rate : 25.000 fps
Color space : YUV
Chroma subsampling : 4:2:0
Bit depth : 8 bits
Scan type : Progressive
Bits/(Pixel*Frame) : 0.242
Stream size : 326 MiB (93%)
Writing library : XviD 64

Audio
ID : 1
Format : MPEG Audio
Format version : Version 1
Format profile : Layer 3
Codec ID : 55
Codec ID/Hint : MP3
Duration : 26mn 11s
Bit rate mode : Constant
Bit rate : 128 Kbps
Channel(s) : 2 channels
Sampling rate : 44.1 KHz
Stream size : 24.0 MiB (7%)
Alignment : Split accross interleaves
Interleave, duration : 26 ms (0.65 video frame)


Cкриншоты:






Записались на автоматическое включение в очередь:
baziss, Snara, valbar, vyur, RussianGuy, Marrina, медикус, mosk7, Nadejdaenergia, ILIA, Masjanja, ajlinn, oldfanat, bondsun, mikhailk, medandrey, oster47, Tanjusha, andrusenko, rittaa, medush, rucula

Если вы хотите, чтобы вас автоматически ставили в очередь на следующие выпуски данного цикла, - сообщите об этом в теме последней раздачи.




Это сообщение отредактировал Alevtina - 19.02.2019 - 19:31


--------------------

Прохожие, купите Доброту!
Лишь за улыбку! Разве ж это много!
Исполните заветную мечту…
И хоть одну из Заповедей Бога!
Снимите маски «гордых» и «крутых»
Купите, хоть немножечко, Терпенья.
И ощутите сердцем, хоть на миг,
Всю прелесть и восторг благодаренья!
Сегодня, АКЦИЯ на Совесть и Любовь!
Притормозите «хаммер» свой, иль «буммер»!
Купите! И волнуйте свою кровь!
От этого ещё никто не умер!


Скрыть подпись


baziss
№2 Отправлено: 28.01.2019 - 02:23


Аксакал обыкновенный

Группа: Аксакалы
Регистрация: 4.12.2005
Сообщений: 2591
Обитает:
Последний раз был:
cегодня в 14:45




Архив в порядке. Спасибо большое! chveti.gif


--------------------

Скрыть подпись
Top
Alevtina
№3 Отправлено: 28.01.2019 - 05:28


Время камни собирать...

Группа: Аксакалы
Регистрация: 12.02.2009
Сообщений: 5727
Обитает:
Последний раз был:
cегодня в 12:55




baziss, благодарю за весть!


--------------------

Прохожие, купите Доброту!
Лишь за улыбку! Разве ж это много!
Исполните заветную мечту…
И хоть одну из Заповедей Бога!
Снимите маски «гордых» и «крутых»
Купите, хоть немножечко, Терпенья.
И ощутите сердцем, хоть на миг,
Всю прелесть и восторг благодаренья!
Сегодня, АКЦИЯ на Совесть и Любовь!
Притормозите «хаммер» свой, иль «буммер»!
Купите! И волнуйте свою кровь!
От этого ещё никто не умер!


Скрыть подпись
Top
1 человек просматривает эту тему (1 гость)
« Предыдущая тема | Мир и люди искусства | Следующая тема »


 



[Script Execution time: 0,0255]   [23 queries used]   [GZIP enabled]