Заходят многие - остаются лучшие!
Здравствуйте Гость ( Вход | Регистрация ) Выслать повторно письмо для активации
Вход
Ваше имя Пароль Забыли пароль?
Запомнить Вас?
Войти скрытым?



 Правила раздела Новые сообщения раздела  


 

 Смертельнaя ярость / Con la rabbia agli occhi / Death Rage (1976), Триллер,криминал;Реж.-А.Маргерити;Роли-Юл Бриннер,М.Балсам,М.Раньери
SanSan48
  №1 Отправлено: 31.12.2018 - 10:55


"Спартак" - ЧЕМПИОН!!!

Группа: Пользователи
Регистрация: 28.12.2009
Сообщений: 2043
Обитает:
Последний раз был:
cегодня в 19:23




Смертельнaя ярость / Con la rabbia agli occhi / Death Rage (1976)



Жанр: Триллер, криминал
Выпущено: Италия, Giovine
Год выпуска: 1976
Премьера (мир): 22 октября 1976 (Италия), 11 марта 1977 (Германия (ФРГ)), 17 августа 1977 (Франция)
Сценаристы: Гай Кастальдо / Guy Castaldo, Джакомо Фурия / Giacomo Furia
Оператор: Серджо Д’Оффици / Sergio D'Offizi
Композиторы: Гуидо Де Анджелис / Guido De Angelis, Маурицио Де Анджелис / Maurizio De Angelis
Монтажёры: Марио Морра / Mario Morra, Фима Новек / Fima Noveck

Режиссёр: Антонио Маргерити / Antonio Margheriti

В ролях:
Юл Бриннер / Yul Brynner ... Peter Marciani
Массимо Раньери / Massimo Ranieri ... Angelo
Барбара Буше / Barbara Bouchet ... Anny
Мартин Балсам / Martin Balsam ... Commissario
Джакомо Фурия / Giacomo Furia ... Brigadiere Cannavale
Сальваторе Боргезе / Salvatore Borgese ... Vincent
Лорис Баццокки / Loris Bazzocchi ... Pasquale
Розарио Борелли / Rosario Borelli ... Gallo's henchman
Луиджи Бонос / Luigi Bonos ... Peppiniello
Ренцо Мариньяно / Renzo Marignano ... Doctor
Джанкарло Сбраджиа / Giancarlo Sbragia ... Gennaro Gallo
Дженнаро Бенедуче / Gennaro Beneduce ... Man at Police Station
Пол Костелло / Paul Costello ... Desk Clerk
Доменико Ди Костанцо / Domenico Di Costanzo ... Leonardi Bodyguard
Джильберто Галимберти / Gilberto Galimberti ... Gallo’s henchman

Описание: По мотивам рассказов Лейлы Буонджорно (Leila Buongiorno) и Пьерлуиджи Андреани (Pierluigi Andreani).
Один из последних фильмов Юла Бриннера. Сюжет более чем шаблонный – Питер Марчиани, американец итальянского происхождения, приезжает в Италию, чтобы ликвидировать крупного криминального авторитета и параллельно разобраться в гибели брата. Выяснив обстоятельства его смерти, он начинает мстить …

Дополнительная информация: Релиз:


Исходник найден в сети.

Автор рипа: pmv

Большое спасибо за:
- перевод и озвучку - ССК+ (Сергей Квардаков)

IMDb = 5,1/10 (514) - https://www.imdb.com/title/tt0074342/
Кинопоиск = - (38) - https://www.kinopoisk.ru/film/smertelnaya-yarost-1976-25814/

ВНИМАНИЕ!!! РИП ФОРМАТА mkv (кодек H.264) ВОСПРОИЗВОДИТСЯ НЕ НА ВСЕХ БЫТОВЫХ ВИДЕОПЛЕЕРАХ!!!

Параметры файла:
Название: Death Rage (1976, rus_VO+eng+ita).mkv
Качество видео: DVDRip-AVC
Формат видео: MKV
Размер: 1,48 ГБ (1 592 577 198 байт)
Продолжительность: 01:33:10
Перевод: Одноголосый (закадровый) – ССК+ (Сергей Квардаков)
Оригинальная аудиодорожка: английский
Оригинальная аудиодорожка: итальянский
Видео: AVC (H264), 720@1006x544 (1.85:1), 25 fps, 1700 kbps, 0.174 Bits/Pixel
Аудио #1: AC3, 48 KHz, stereo (2 ch), 192 kbps – русский одноголосый (ССК+)
Аудио #2: AC3, 48 KHz, stereo (2 ch), 192 kbps – английский
Аудио #3: AC3, 48 KHz, stereo (2 ch), 192 kbps – итальянский



General
Unique ID : 180602123837408189564137691409682074626 (0x87DEB42E52CD113E83351AA98F290C02)
Complete name : D:\torrents\Death Rage (1976, rus_VO+eng+ita).mkv
Format : Matroska
Format version : Version 4 / Version 2
File size : 1.48 GiB
Duration : 1 h 33 min
Overall bit rate : 2 279 kb/s
Encoded date : UTC 2018-12-31 08:26:07
Writing application : mkvmerge v6.7.0 ('Back to the Ground') 32bit built on Jan 8 2014 15:03:17
Writing library : libebml v1.3.0 + libmatroska v1.4.1

Video
ID : 1
Format : AVC
Format/Info : Advanced Video Codec
Format profile : High@L4.1
Format settings, CABAC : Yes
Format settings, RefFrames : 16 frames
Codec ID : V_MPEG4/ISO/AVC
Duration : 1 h 33 min
Bit rate : 1 700 kb/s
Width : 720 pixels
Height : 544 pixels
Display aspect ratio : 1.85:1
Original display aspect ratio : 4:3
Frame rate mode : Constant
Frame rate : 25.000 FPS
Color space : YUV
Chroma subsampling : 4:2:0
Bit depth : 8 bits
Scan type : Progressive
Bits/(Pixel*Frame) : 0.174
Stream size : 1.11 GiB (75%)
Writing library : x264 core 130 r2273 b3065e6
Encoding settings : cabac=1 / ref=16 / deblock=1:0:0 / analyse=0x3:0x133 / me=umh / subme=10 / psy=1 / psy_rd=1.00:0.00 / mixed_ref=1 / me_range=24 / chroma_me=1 / trellis=2 / 8x8dct=1 / cqm=0 / deadzone=21,11 / fast_pskip=1 / chroma_qp_offset=-2 / threads=48 / lookahead_threads=4 / sliced_threads=0 / nr=0 / decimate=1 / interlaced=0 / bluray_compat=0 / constrained_intra=0 / bframes=8 / b_pyramid=2 / b_adapt=2 / b_bias=0 / direct=3 / weightb=1 / open_gop=0 / weightp=2 / keyint=250 / keyint_min=25 / scenecut=40 / intra_refresh=0 / rc_lookahead=60 / rc=2pass / mbtree=1 / bitrate=1700 / ratetol=1.0 / qcomp=0.60 / qpmin=0 / qpmax=69 / qpstep=4 / cplxblur=20.0 / qblur=0.5 / ip_ratio=1.40 / aq=1:1.00
Language : Italian
Default : Yes
Forced : No

Audio #1
ID : 2
Format : AC-3
Format/Info : Audio Coding 3
Format settings, Endianness : Big
Codec ID : A_AC3
Duration : 1 h 33 min
Bit rate mode : Constant
Bit rate : 192 kb/s
Channel(s) : 2 channels
Channel positions : Front: L R
Sampling rate : 48.0 kHz
Frame rate : 31.250 FPS (1536 SPF)
Bit depth : 16 bits
Compression mode : Lossy
Stream size : 128 MiB (8%)
Language : Russian
Service kind : Complete Main
Default : Yes
Forced : No

Audio #2
ID : 3
Format : AC-3
Format/Info : Audio Coding 3
Format settings, Endianness : Big
Codec ID : A_AC3
Duration : 1 h 33 min
Bit rate mode : Constant
Bit rate : 192 kb/s
Channel(s) : 2 channels
Channel positions : Front: L R
Sampling rate : 48.0 kHz
Frame rate : 31.250 FPS (1536 SPF)
Bit depth : 16 bits
Compression mode : Lossy
Stream size : 128 MiB (8%)
Language : English
Service kind : Complete Main
Default : No
Forced : No

Audio #3
ID : 4
Format : AC-3
Format/Info : Audio Coding 3
Format settings, Endianness : Big
Codec ID : A_AC3
Duration : 1 h 33 min
Bit rate mode : Constant
Bit rate : 192 kb/s
Channel(s) : 2 channels
Channel positions : Front: L R
Sampling rate : 48.0 kHz
Frame rate : 31.250 FPS (1536 SPF)
Bit depth : 16 bits
Compression mode : Lossy
Stream size : 128 MiB (8%)
Language : Italian
Service kind : Complete Main
Default : No
Forced : No








МОИ РАЗДАЧИ НА ФЕНИКСе: ЗДЕСЬ




Это сообщение отредактировал SanSan48 - 31.12.2018 - 14:23


--------------------
"Спартак" - ЧЕМПИОН!!!

Скрыть подпись


SanSan48
№2 Отправлено: 31.12.2018 - 11:01


"Спартак" - ЧЕМПИОН!!!

Группа: Пользователи
Регистрация: 28.12.2009
Сообщений: 2043
Обитает:
Последний раз был:
cегодня в 19:23




ВСЕХ ЛЮБИТЕЛЕЙ КИНО ПОЗДРАВЛЯЕМ С НОВЫМ ГОДОМ !!!

ЖЕЛАЕМ УСПЕХОВ, УДАЧ и КРЕПКОГО ЗДОРОВЬЯ !!!

ПОДАРОК ОТ ССК+ (СЕРГЕЯ КВАРДАКОВА) - ОЗВУЧКА ФИЛЬМА "СМЕРТЕЛЬНАЯ ЯРОСТЬ" (1976) С ЮЛОМ БРИННЕРОМ В ГЛАВНОЙ РОЛИ !!!


Это сообщение отредактировал SanSan48 - 31.12.2018 - 11:02


--------------------
"Спартак" - ЧЕМПИОН!!!

Скрыть подпись
Top
kyo
№3 Отправлено: 31.12.2018 - 14:30


Живёт здесь

Группа: Потребители
Регистрация: 21.07.2007
Сообщений: 2263
Обитает:
Последний раз был:
cегодня в 19:07




Архивы в порядке, спасибо !
С наступающим Новым Годом !
Top
SanSan48
№4 Отправлено: 31.12.2018 - 14:57


"Спартак" - ЧЕМПИОН!!!

Группа: Пользователи
Регистрация: 28.12.2009
Сообщений: 2043
Обитает:
Последний раз был:
cегодня в 19:23




Цитата
( kyo @ 31.12.2018 - 14:30)
Архивы в порядке, спасибо !
С наступающим Новым Годом !

kyo, Благодарю за сообщение!

Приятного всем просмотра!


--------------------
"Спартак" - ЧЕМПИОН!!!

Скрыть подпись
Top
wider2
№5 Отправлено: 31.12.2018 - 15:10


Живёт здесь

Группа: Потребители
Регистрация: 17.10.2006
Сообщений: 1197
Обитает:
Последний раз был:
cегодня в 05:12




так, а все таки, сценарий то как?
просто боевик?
Top
SanSan48
№6 Отправлено: 31.12.2018 - 15:17


"Спартак" - ЧЕМПИОН!!!

Группа: Пользователи
Регистрация: 28.12.2009
Сообщений: 2043
Обитает:
Последний раз был:
cегодня в 19:23




Цитата
wider2 @ 31.12.2018 - 15:10
так, а все таки, сценарий то как?
просто боевик?

Однако, всё вам расскажи. eat4.gif
Скачайте, сами посмотрите и делайте выводы. yaya.gif

Сценарий сценарием, а Юл наш Бриннер - он и в Африке Бриннер!!! kachaem.gif


Это сообщение отредактировал SanSan48 - 31.12.2018 - 15:17


--------------------
"Спартак" - ЧЕМПИОН!!!

Скрыть подпись
Top
wider2
№7 Отправлено: 31.12.2018 - 16:15


Живёт здесь

Группа: Потребители
Регистрация: 17.10.2006
Сообщений: 1197
Обитает:
Последний раз был:
cегодня в 05:12




пожалуй я задал риторический вопрос
Будем же уважать нашего Юля Бриннера!
Top
eugene2
№8 Отправлено: 31.12.2018 - 17:38


Старожил

Группа: Потребители
Регистрация: 24.04.2007
Сообщений: 758
Обитает:
Последний раз был:
cегодня в 16:07




Спасибо, все в порядке.

С Новым Годом!
Top
Viacheslav11
№9 Отправлено: 1.01.2019 - 00:42


Посетитель

Группа: Потребители
Регистрация: 21.01.2009
Сообщений: 103
Обитает:
Последний раз был:
cегодня в 09:41




Фильм шикарный! Смотрел в кинотеатре, он шел у нас в прокате в начале 90-х. Очень крепкий боевик!
На новогодние каникулы посмотреть - самое то, чтобы взбодриться!
Top
wider2
№10 Отправлено: 1.01.2019 - 09:27


Живёт здесь

Группа: Потребители
Регистрация: 17.10.2006
Сообщений: 1197
Обитает:
Последний раз был:
cегодня в 05:12




Можно привести ключевую фразу старлея
-По сути дела клиент уже мертв в тот момент, когда заключен контракт. Просто он об этом еще не знает.

Все таки времена немного сейчас стали другими
проще договариваться и проталкивать свю линию давлением, искать компромиссы
стрельба - это уже крайности
но для боевика самое то
Top
tovarish
№11 Отправлено: 2.01.2019 - 09:03


Завсегдатай

Группа: Потребители
Регистрация: 8.07.2008
Сообщений: 322
Обитает:
Последний раз был:
cегодня в 08:56




Спасибо!
И перефразируя виднейшего из деятелей - Нет таких mkv, которые не могли бы стать avi!
Top
1 человек просматривает эту тему (1 гость)
« Предыдущая тема | Зарубежные фильмы | Следующая тема »


 



[Script Execution time: 0,0330]   [23 queries used]   [GZIP enabled]