Заходят многие - остаются лучшие!
Здравствуйте Гость ( Вход | Регистрация ) Выслать повторно письмо для активации
Вход
Ваше имя Пароль Забыли пароль?
Запомнить Вас?
Войти скрытым?



Новые сообщения раздела  

 

 Библейский сюжет. Станислав Ростоцкий. А зори здесь тихие (2020), Авторская программа Дмитрия Менделеева
Alevtina
  №1 Отправлено: 6.06.2020 - 10:14


Время камни собирать...

Группа: Аксакалы
Регистрация: 12.02.2009
Сообщений: 5801
Обитает:
Последний раз был:
вчера в 19:19




Библейский сюжет. Станислав Ростоцкий. "А зори здесь тихие"



В рамках проекта -

Год выпуска: 2020

Страна: Россия

Режиссер: Ольга Жукова

Студия: ООО Студия "Неофит"

Автор и ведущий: Дмитрий Менделеев


Обращение великих художников к Библии никогда не заканчивалось только иллюстрацией того или иного сюжета Вечной Книги. Оно всегда предполагало личное осмысление. Художник выбирал библейскую историю, чтобы рассказать о себе, о своем времени, чтобы глубже постичь смысл происходящего.
Язык образов Святого Писания был универсален и понятен для всех. Но теперь для нас этот язык наполовину забыт. Мы уже не можем так ясно, с листа, читать всё, что говорили в своих произведениях художники, поэты, композиторы и писатели прошлого. Мы более опираемся на чувственное восприятие, которое все же является только частью замысла, его внешней стороной. В программе "Библейский сюжет" делается попытка соединить "прекрасного разрозненные части", по-другому взглянуть на всемирно известные произведения искусства, рассказать о судьбе их создателей.


Описание:

В феврале 44-го под городом Дубно полк, в котором он служил, бросили в отвлекающий манёвр на фактически неприступную крепость. Полк был обречён. "Я только услышал крик: "Танк!", – вспоминал Станислав Иосифович. – Кругом грохот стоит. Я выскочил из окопчика, меня что-то за ногу схватило. Трудно поверить, я сам себе не верю, но танк по мне проехал. Помню последнее, как кто-то сказал: "Готов парень, отвоевался".
Я понял, что человек это самое выносливое животное из всех. Потому что, как потом выяснилось, меня довезли до госпиталя через трое суток." Его вынес на себе незнакомый ему офицер. А потом выходила сестра милосердия, Аня. "Она не видела картину "А зори здесь тихие" – к тому времени она ослепла. Я привез её на студию и во время просмотра рассказывал, что происходит на экране. Таким образом, она сумела посмотреть картину. Аня знала, что я в огромной степени снимал этот фильм как благодарность ей и в благодарность всем тем женщинам, которые помогли многим бойцам остаться в живых".

Библейский сюжет в повести Бориса Васильева и в фильме раскрывается в стихах, которые читает Соня Гурвич:
Рожденные в года глухие
Пути не помнят своего.
Мы – дети страшных лет России -
Забыть не в силах ничего…

Вот, как они заканчиваются у Блока:
Есть немота – то гул набата
Заставил заградить уста.
В сердцах, восторженных когда-то,
Есть роковая пустота.
И пусть над нашим смертным ложем
Взовьется с криком воронье,-
Те, кто достойней, Боже, Боже,
Да узрят Царствие Твое!


Media-info:

Format : AVI
Format/Info : Audio Video Interleave
File size : 362 MiB
Duration : 26mn 13s
Overall bit rate : 1 927 Kbps

Video
ID : 0
Format : MPEG-4 Visual
Format profile : Advanced Simple@L5
Format settings, BVOP : Yes
Format settings, QPel : No
Format settings, GMC : No warppoints
Format settings, Matrix : Default (H.263)
Codec ID : XVID
Codec ID/Hint : XviD
Duration : 26mn 13s
Bit rate : 1 787 Kbps
Width : 720 pixels
Height : 400 pixels
Display aspect ratio : 16:9
Frame rate : 25.000 fps
Color space : YUV
Chroma subsampling : 4:2:0
Bit depth : 8 bits
Scan type : Progressive
Bits/(Pixel*Frame) : 0.248
Stream size : 335 MiB (93%)
Writing library : XviD 64

Audio
ID : 1
Format : MPEG Audio
Format version : Version 1
Format profile : Layer 3
Codec ID : 55
Codec ID/Hint : MP3
Duration : 26mn 13s
Bit rate mode : Constant
Bit rate : 128 Kbps
Channel(s) : 2 channels
Sampling rate : 44.1 KHz
Stream size : 24.0 MiB (7%)
Alignment : Split accross interleaves
Interleave, duration : 26 ms (0.65 video frame)



Cкриншоты:






Записались на автоматическое включение в очередь:
baziss, Snara, valbar, vyur, RussianGuy, Marrina, медикус, mosk7, Nadejdaenergia, ILIA, Masjanja, ajlinn, oldfanat, bondsun, mikhailk, medandrey, oster47, Tanjusha, andrusenko, rittaa, medush, rucula

Если вы хотите, чтобы вас автоматически ставили в очередь на следующие выпуски данного цикла, - сообщите об этом в теме последней раздачи.




Это сообщение отредактировал Alevtina - 6.06.2020 - 10:15


--------------------

Прохожие, купите Доброту!
Лишь за улыбку! Разве ж это много!
Исполните заветную мечту…
И хоть одну из Заповедей Бога!
Снимите маски «гордых» и «крутых»
Купите, хоть немножечко, Терпенья.
И ощутите сердцем, хоть на миг,
Всю прелесть и восторг благодаренья!
Сегодня, АКЦИЯ на Совесть и Любовь!
Притормозите «хаммер» свой, иль «буммер»!
Купите! И волнуйте свою кровь!
От этого ещё никто не умер!


Скрыть подпись


кинолюбитель
№2 Отправлено: 6.06.2020 - 10:26


Завсегдатай

Группа: Активисты
Регистрация: 27.07.2009
Сообщений: 403
Обитает:
Последний раз был:
cегодня в 16:14




Архивы в порядке
Top
Alevtina
№3 Отправлено: 6.06.2020 - 11:50


Время камни собирать...

Группа: Аксакалы
Регистрация: 12.02.2009
Сообщений: 5801
Обитает:
Последний раз был:
вчера в 19:19




кинолюбитель, замечательно!


--------------------

Прохожие, купите Доброту!
Лишь за улыбку! Разве ж это много!
Исполните заветную мечту…
И хоть одну из Заповедей Бога!
Снимите маски «гордых» и «крутых»
Купите, хоть немножечко, Терпенья.
И ощутите сердцем, хоть на миг,
Всю прелесть и восторг благодаренья!
Сегодня, АКЦИЯ на Совесть и Любовь!
Притормозите «хаммер» свой, иль «буммер»!
Купите! И волнуйте свою кровь!
От этого ещё никто не умер!


Скрыть подпись
Top
1 человек просматривает эту тему (1 гость)
« Предыдущая тема | Мир и люди искусства | Следующая тема »


 



[Script Execution time: 0,0465]   [22 queries used]   [GZIP enabled]