Заходят многие - остаются лучшие!
Здравствуйте Гость ( Вход | Регистрация ) Выслать повторно письмо для активации
Вход
Ваше имя Пароль Забыли пароль?
Запомнить Вас?
Войти скрытым?



 Правила раздела Новые сообщения раздела  


 

 Как поссорился Иван Иванович с Иваном Никифоровичем (1941), Трагикомедия;Реж-А.Кустов,А.Мазур;Роли-В.Попов,С.Блинников,Ф.Раневская
SanSan48
  №1 Отправлено: 24.08.2019 - 11:12


"Спартак" - ЧЕМПИОН!!!

Группа: Пользователи
Регистрация: 28.12.2009
Сообщений: 2082
Обитает:
Последний раз был:
вчера в 20:14




Как поссорился Иван Иванович с Иваном Никифоровичем (1941)



Предыдущие раздачи:
3.11.2014 (SATrip)
18.04.2009 (DVDrip)
18.04.2009 (DVD5)

Жанр: Трагикомедия, экранизация
Выпущено: СССР, Союздетфильм
Год выпуска: 1941
Премьера (СССР): август 1941
Сценарист: Георгий Гребнер
Оператор: Сергей Урусевский
Композитор: Михаил Старокадомский
Художники: Константин Урбетис
Монтажёр: Г.Шимкович

Режиссёры: Андрей Кустов, Анисим Мазур

В ролях:
Владимир Александрович Попов … Иван Иванович Перерепенко
Сергей Блинников … Иван Никифорович Довгочхун
Владимир Владиславский … Демьян Демьяныч, судья
Осип Абдулов … Пётр Петрович, городничий
Фёдор Курихин … Антон Прокофьевич Голопуз (в титрах - Попопузя)
Фаина Раневская … Горпина
Иван Лагутин … Тарас Тихонович, секретарь суда
Кларина Фролова-Воронцова … Агафья Федосеевна
Надежда Березовская … Гапка
Иван Любезнов … писарь
Михаил Поволоцкий … Макар Назарьевич
Иона Бий-Бродский … подсудок
Мария Барабанова … Оришка
Алексей Консовский … Николай Васильевич Гоголь
Иван Рыжов … гость на ассамблее
Сергей Троицкий … гость на ассамблее
Александр Хвыля … эпизод
Мария Шлёнская … старушка-просительница
Константин Немоляев … скрипач, дирижёр оркестра
Людмила Тиссэ … гостья на ассамблее

Описание: По одноименной повести Николая Васильевича Гоголя.
Как поссорились Иван Иванович с Иваном Никифоровичем? Иван Иванович зашел к своему старому закадычному другу Ивану Никифоровичу с большим желанием выпросить у него понравившееся ружье. Не найдя общего языка, добрые соседи вдруг повздорили. Иван Никифорович в пылу ссоры назвал Ивана Ивановича гусаком, что привело того в неописуемый гнев…

Дополнительная информация: Релиз:

Исходник найден в сети.

Автор рипа: pmv

* Художественный руководитель студии – засл. деятель искусств С.И.Юткевич

IMDb = 7,0/10 (41) - https://www.imdb.com/title/tt0252583/
Кинопоиск = 7.570 (380) - https://www.kinopoisk.ru/film/94940/

Параметры файла:
Название: Как поссорился Иван Иванович с Иваном Никифоровичем (1941).avi
Качество видео: WEB-DLRip
Формат видео: AVI
Размер: 1103.98 Mb ( 1 157 611 520 bytes )
Продолжительность: 01:06:18.760 (99469 frames)
Видео: 720x512 (1.41:1), 25 fps, XviD build 73 ~2125 kbps avg, 0.23 bit/pixel
Аудио: 48 kHz, AC3 Dolby Digital, 2/0 (L,R) ch, ~192.00 kbps avg



General
Complete name : D:\torrents\Как поссорился Иван Иванович с Иваном Никифоровичем (1941).avi
Format : AVI
Format/Info : Audio Video Interleave
File size : 1.08 GiB
Duration : 1 h 6 min
Overall bit rate : 2 328 kb/s
Writing application : VirtualDubMod 1.5.10.3 | www.virtualdub-fr.org || (build 2550/release)
Writing library : VirtualDubMod build 2550/release

Video
ID : 0
Format : MPEG-4 Visual
Format profile : Advanced Simple@L5
Format settings, BVOP : 2
Format settings, QPel : No
Format settings, GMC : No warppoints
Format settings, Matrix : Default (H.263)
Codec ID : XVID
Codec ID/Hint : XviD
Duration : 1 h 6 min
Bit rate : 2 126 kb/s
Width : 720 pixels
Height : 512 pixels
Display aspect ratio : 1.406
Frame rate : 25.000 FPS
Color space : YUV
Chroma subsampling : 4:2:0
Bit depth : 8 bits
Scan type : Progressive
Compression mode : Lossy
Bits/(Pixel*Frame) : 0.231
Stream size : 1 008 MiB (91%)
Writing library : XviD 73

Audio
ID : 1
Format : AC-3
Format/Info : Audio Coding 3
Format settings, Endianness : Big
Codec ID : 2000
Duration : 1 h 6 min
Bit rate mode : Constant
Bit rate : 192 kb/s
Channel(s) : 2 channels
Channel positions : Front: L R
Sampling rate : 48.0 kHz
Frame rate : 31.250 FPS (1536 SPF)
Bit depth : 16 bits
Compression mode : Lossy
Delay relative to video : 28 ms
Stream size : 91.1 MiB (8%)
Alignment : Split accross interleaves
Interleave, duration : 40 ms (1.00 video frame)
Interleave, preload duration : 500 ms
Service kind : Complete Main





МОИ РАЗДАЧИ НА ФЕНИКСе: ЗДЕСЬ




Это сообщение отредактировал SanSan48 - 24.08.2019 - 11:27


--------------------
"Спартак" - ЧЕМПИОН!!!

Скрыть подпись


baziss
№2 Отправлено: 24.08.2019 - 12:08


Аксакал обыкновенный

Группа: Аксакалы
Регистрация: 4.12.2005
Сообщений: 2645
Обитает:
Последний раз был:
вчера в 18:12




Архив в порядке. Спасибо большое!


--------------------

Скрыть подпись
Top
SanSan48
№3 Отправлено: 24.08.2019 - 15:00


"Спартак" - ЧЕМПИОН!!!

Группа: Пользователи
Регистрация: 28.12.2009
Сообщений: 2082
Обитает:
Последний раз был:
вчера в 20:14




Цитата
( baziss @ 24.08.2019 - 12:08)
Архив в порядке. Спасибо большое!

baziss, Благодарю за сообщение!

Приятного всем просмотра!


--------------------
"Спартак" - ЧЕМПИОН!!!

Скрыть подпись
Top
1 человек просматривает эту тему (1 гость)
« Предыдущая тема | Отечественное кино | Следующая тема »


 



[Script Execution time: 0,0609]   [23 queries used]   [GZIP enabled]