Заходят многие - остаются лучшие!
Здравствуйте Гость ( Вход | Регистрация ) Выслать повторно письмо для активации
Вход
Ваше имя Пароль Забыли пароль?
Запомнить Вас?
Войти скрытым?



 Правила раздела Новые сообщения раздела  


 

 Народ против О`Хара / Народ против О`Хары / The People Against O'Hara (1951), Спенсер Трэйси, Пэт О’Брайен / криминальная драма, нуар
surzhoks
  №1 Отправлено: 22.03.2017 - 19:54


Старожил

Группа: Аксакалы
Регистрация: 17.03.2008
Сообщений: 940
Обитает:
Последний раз был:
cегодня в 10:12




Народ против О`Хара / Народ против О`Хары / The People Against O'Hara


Страна: США
Студия: Metro-Goldwyn-Mayer (MGM)
Жанр: фильм-нуар, криминальная драма
Год выпуска: 1951
Продолжительность: 01:42:11
Режиссер: Джон Стёрджес / John Sturges
Композитор: Кармен Драгон / Carmen Dragon
В ролях:
Спенсер Трэйси / Spencer Tracy ... James P. Curtayne
Пэт О’Брайен / Pat O'Brien ... Det. Vincent Ricks
Диана Линн / Diana Lynn ... Virginia «Ginny» Curtayne
Джон Ходиак / John Hodiak ... District Attorney Louis Barra
Эдуардо Чианнелли / Eduardo Ciannelli ... Sol «Knuckles» Lanzetta
Джеймс Арнесс / James Arness ... John Fordman 'Johnny' O'Hara
Ивет Дугай / Yvette Duguay ... Mrs. Katrina Lanzetta
Джей С. Флиппен / Jay C. Flippen ... Sven Norson
Уильям Кэмпбелл / William Campbell ... Frank Korvac
Ричард Андерсон / Richard Anderson ... Jeff Chapman
Генри О’Нилл / Henry O'Neill ... Judge Keating
Артур Шилдс / Arthur Shields ... Mr. O'Hara
Луиз Лоример / Louise Lorimer ... Mrs. Peg O'Hara
Энн Доран / Ann Doran ... Betty Clark, Policewoman
Эмиль Мейер / Emile Meyer ... Capt. Tom Mulvaney
Режис Туми / Regis Toomey ... Fred Colton, Police Sound Man
Кэтрин Уоррен / Katherine Warren ... Mrs. William Sheffield
Чарльз Бронсон / Charles Bronson ... Angelo Korvac, в титрах не указан

Описание: Бывший когда-то успешным адвокатом по уголовным делам Джеймс Кёртейн пристрастился к бутылке и несколько лет тому назад отошел от серьезной адвокатской практики, продолжая заниматься лишь несложными гражданскими случаями. Его дочь Вирджиния откладывает свадьбу, чтобы оберегать отца от запоев. Но однажды Джеймс Кёртейн узнает, что сын их соседей Джон О'Хара обвинен в убийстве. Адвокат хорошо знает Джона, который вырос на его глазах, и он не верит, что тот мог совершить хладнокровное убийство. Тогда Кёртейн собирается с силами, «просыхает» и берется за это дело, отправляясь в суд защищать Джона...
Экранизация романа Элизара Липски.


Доп. информация:
Огромное спасибо всем причастным к релизу:
рип - Магда,
перевод и озвучивание фильма - Юрий Медведев,
работа со звуком и реавторинг исходного DVD- AlekceyR76,
финансовая поддержка перевода и озвучивания фильма:
Lafajet, Магда, jasenka, елена 22, yanaelisa, old76, борюська, Ugo927, cementit, surzhoks, STICK24, voostorg, HippopotamusIV, mangust1, spartakeynoir, Arias, Patsy+, Видео, sindzi

Архивы созданы RAR-архиватором с добавлением 3% на восстановление и снабжены sfv-проверочником.
Просьба к первому скачавшему отписаться о сохранности архивов на источнике раздачи.

Раздача рассчитана на 2 месяца. На просмотр линка и скачивание 5 дней!
В случае если вы встали в очередь, а затем отказываетесь от скачивания без объяснения причин, возможен отказ в последующих моих раздачах.



Полное имя :People Against O Hara.DVDRip.1951.avi
Filesize: 1634.43 Mb ( 1 713 827 840 bytes )
Play length: 01:42:11.375 (147006 frames)
Subtitles: Not Present
Video: 640x480 (1.33:1), 23.976 fps, XviD build 73 ~1837 kbps avg, 0.25 bit/pixel
Audio #1: 48 kHz, AC3 Dolby Digital, 2/0 (L,R) ch, ~192.00 kbps avg
Audio #2: 48 kHz, AC3 Dolby Digital, 2/0 (L,R) ch, ~192.00 kbps avg


People Against O Hara.DVDRip.1951.avi
Формат : AVI
Формат/Информация : Audio Video Interleave
Размер файла : 1,60 Гбайт
Продолжительность : 1 ч. 42 м.
Общий поток : 2236 Кбит/сек
Программа кодирования : VirtualDubMod 1.5.4.1 (build 2178/release)
Библиотека кодирования : VirtualDubMod build 2178/release

Видео
Идентификатор : 0
Формат : MPEG-4 Visual
Профиль формата : Advanced Simple@L5
Параметр BVOP формата : 2
Параметр QPel формата : Нет
Параметр GMC формата : Без точки перехода
Параметр матрицы формата : Default (H.263)
Идентификатор кодека : DX50
Идентификатор кодека/Подсказка : DivX 5
Продолжительность : 1 ч. 42 м.
Битрейт : 1838 Кбит/сек
Ширина : 640 пикселей
Высота : 480 пикселей
Соотношение сторон : 4:3
Частота кадров : 23,976 кадра/сек
Цветовое пространство : YUV
Субдискретизация насыщенности : 4:2:0
Битовая глубина : 8 бит
Тип развёртки : Прогрессивная
Метод сжатия : С потерями
Бит/(Пиксели*Кадры) : 0.250
Размер потока : 1,31 Гбайт (82%)
Библиотека кодирования : XviD 73

Аудио #1
Идентификатор : 1
Формат : AC-3
Формат/Информация : Audio Coding 3
Расширение режима : CM (complete main)
Параметр Endianness формата : Big
Идентификатор кодека : 2000
Продолжительность : 1 ч. 42 м.
Вид битрейта : Постоянный
Битрейт : 192 Кбит/сек
Каналы : 2 канала
Расположение каналов : Front: L R
Частота : 48,0 КГц
Битовая глубина : 16 бит
Метод сжатия : С потерями
Размер потока : 140 Мбайт (9%)
Выравнивание : Разделение по промежуткам
Продолжительность промежутка : 42 мс. (1,00 видеокадр)
Время предзагрузки промежутка : 500 мс.

Аудио #2
Идентификатор : 2
Формат : AC-3
Формат/Информация : Audio Coding 3
Расширение режима : CM (complete main)
Параметр Endianness формата : Big
Идентификатор кодека : 2000
Продолжительность : 1 ч. 42 м.
Вид битрейта : Постоянный
Битрейт : 192 Кбит/сек
Каналы : 2 канала
Расположение каналов : Front: L R
Частота : 48,0 КГц
Битовая глубина : 16 бит
Метод сжатия : С потерями
Размер потока : 140 Мбайт (9%)
Выравнивание : Разделение по промежуткам
Продолжительность промежутка : 42 мс. (1,00 видеокадр)
Время предзагрузки промежутка : 500 мс.




--------------------
Искусство откладывать деньги сводится к умению сказать “нет” потребительскому обществу.

Скрыть подпись


vjub58
№2 Отправлено: 22.03.2017 - 21:42


Практикующий эсквайр

Группа: Аксакалы
Регистрация: 6.12.2005
Сообщений: 4506
Обитает:
Последний раз был:
cегодня в 11:17




Спасибо, все ОК. pozdrav_buket.gif
Top
1 человек просматривает эту тему (1 гость)
« Предыдущая тема | Зарубежные фильмы | Следующая тема »


 



[Script Execution time: 0,0312]   [22 queries used]   [GZIP enabled]