Здравствуйте Гость ( Вход | Регистрация ) Выслать повторно письмо для активации
Вход
Ваше имя Пароль Забыли пароль?
Запомнить Вас?
Войти скрытым?



 Правила раздела Новые сообщения раздела  


 

 Озорной флирт / The Naughty Flirt (1931), Элис Уайт, Мирна Лой
surzhoks
  №1 Отправлено: 19.11.2016 - 19:00


Старожил

Группа: Аксакалы
Регистрация: 17.03.2008
Сообщений: 895
Обитает:
Последний раз был:
вчера в 22:17




Озорной флирт / The Naughty Flirt


Страна: США
Студия: First National Pictures Inc., The Vitaphone Corporation
Жанр: комедия
Год выпуска: 1931
Продолжительность: 00:55:34
Режиссер: Эдвард Ф. Клайн / Edward F. Cline
В ролях:
Элис Уайт / Alice White ... Miss Katherine Constance «Kay» Elliott
Пол Пейдж / Paul Page ... Alan Joseph Ward
Мирна Лой / Myrna Loy ... Linda Gregory
Роберт Эгнью / Robert Agnew ... Wilbur Fairchild
Дуглас Гилмор / Douglas Gilmore ... Mr. John Thomas «Jack» Gregory
Джордж Ирвинг / George Irving ... Mr. John Raleigh Elliott
Сейр Диаринг / Sayre Dearing ... Kay's Friend, в титрах не указан
Ллойд Ингрэм / Lloyd Ingraham ... Judge Drake, в титрах не указан
Фред Келси / Fred Kelsey ... Policeman in Paddy Wagon, в титрах не указан
Мэриэн Марш / Marian Marsh ... Kay's Friend, в титрах не указана

Описание: Адвокату Алану Уорду претит безрассудное поведение влюблённой в него избалованной наследницы Кэй Эллиот - дочери главы юридической фирмы, в которой Алан работает. Желая вызвать ревность Алана, Кэй объявляет, что не против выйти замуж за Джека Грегори - известного охотника за приданым...

Доп. информация:
Огромное спасибо всем причастным к релизу:
рип - Магда,
перевод фильма - karlivanovich,
озвучивание фильма (по русским субтитрам) - fiendover (Виктор Рутилов),
работа со звуком и реавторинг исходного DVD- AlekceyR76,
финансовая поддержка перевода и озвучивания фильма:
Магда, Lafajet, jasenka, елена 22, yanaelisa, борюська, HippopotamusIV, leoder, BaluBaly, cementit, sapog1960


Архивы созданы RAR-архиватором с добавлением 3% на восстановление и снабжены sfv-проверочником.
Просьба к первому скачавшему отписаться о сохранности архивов на источнике раздачи.

Раздача рассчитана на 2 месяца. На просмотр линка и скачивание 5 дней!
В случае если вы встали в очередь, а затем отказываетесь от скачивания без объяснения причин, возможен отказ в последующих моих раздачах.




Полное имя :The Naughty Flirt.DVDRip.avi
Формат : AVI
Формат/Информация : Audio Video Interleave
Размер файла : 824 Мбайт
Продолжительность : 55 м.
Общий поток : 2073 Кбит/сек
Программа кодирования : VirtualDubMod 1.5.4.1 (build 2178/release)
Библиотека кодирования : VirtualDubMod build 2178/release

Видео
Идентификатор : 0
Формат : MPEG-4 Visual
Профиль формата : Advanced Simple@L5
Параметр BVOP формата : 2
Параметр QPel формата : Нет
Параметр GMC формата : Без точки перехода
Параметр матрицы формата : Default (H.263)
Идентификатор кодека : DX50
Идентификатор кодека/Подсказка : DivX 5
Продолжительность : 55 м.
Битрейт : 1675 Кбит/сек
Ширина : 640 пикселей
Высота : 480 пикселей
Соотношение сторон : 4:3
Частота кадров : 23,976 кадра/сек
Цветовое пространство : YUV
Субдискретизация насыщенности : 4:2:0
Битовая глубина : 8 бит
Тип развёртки : Прогрессивная
Метод сжатия : С потерями
Бит/(Пиксели*Кадры) : 0.227
Размер потока : 666 Мбайт (81%)
Библиотека кодирования : XviD 73

Аудио #1
Идентификатор : 1
Формат : AC-3
Формат/Информация : Audio Coding 3
Расширение режима : CM (complete main)
Параметр Endianness формата : Big
Идентификатор кодека : 2000
Продолжительность : 55 м.
Вид битрейта : Постоянный
Битрейт : 192 Кбит/сек
Каналы : 2 канала
Расположение каналов : Front: L R
Частота : 48,0 КГц
Битовая глубина : 16 бит
Метод сжатия : С потерями
Размер потока : 76,3 Мбайт (9%)
Выравнивание : Разделение по промежуткам
Продолжительность промежутка : 42 мс. (1,00 видеокадр)
Время предзагрузки промежутка : 500 мс.

Аудио #2
Идентификатор : 2
Формат : AC-3
Формат/Информация : Audio Coding 3
Расширение режима : CM (complete main)
Параметр Endianness формата : Big
Идентификатор кодека : 2000
Продолжительность : 55 м.
Вид битрейта : Постоянный
Битрейт : 192 Кбит/сек
Каналы : 2 канала
Расположение каналов : Front: L R
Частота : 48,0 КГц
Битовая глубина : 16 бит
Метод сжатия : С потерями
Размер потока : 76,3 Мбайт (9%)
Выравнивание : Разделение по промежуткам
Продолжительность промежутка : 42 мс. (1,00 видеокадр)
Время предзагрузки промежутка : 500 мс.




--------------------
Искусство откладывать деньги сводится к умению сказать “нет” потребительскому обществу.

Скрыть подпись


vjub58
№2 Отправлено: 19.11.2016 - 23:30


Практикующий эсквайр

Группа: Аксакалы
Регистрация: 6.12.2005
Сообщений: 4406
Обитает:
Последний раз был:
cегодня в 10:15




Спасибо, все ОК. pozdrav_buket.gif
Top
1 человек просматривает эту тему (1 гость)
« Предыдущая тема | Зарубежные фильмы | Следующая тема »


 



[Script Execution time: 0,0159]   [22 queries used]   [GZIP enabled]